BT探索

 找回密码
 注册
搜索
查看: 607|回复: 1

[左右格式] 加勒比海盗5:死无对证.2017.1080p.3D.BluRay.Half-OU.x264.DTS-HD.MA.7.1-FGT.25.30GB

[复制链接]

3万

主题

4万

帖子

11万

影币

管理员

Rank: 8Rank: 8Rank: 8Rank: 8Rank: 8Rank: 8Rank: 8Rank: 8

积分
115958
注册时间
2010-9-1
最后登录
2018-5-23

Medal No.1Medal No.2Medal No.3Medal No.4Medal No.5Medal No.6Medal No.7Medal No.8Medal No.9Medal No.10

发表于 2017-9-23 11:16:30 | 显示全部楼层 |阅读模式
海报


导演: 艾斯彭·山德伯格 / 乔阿吉姆·罗恩尼
编剧: 特里·鲁西奥 / 泰德·艾略特 / 斯图尔特·贝亚蒂耶 / 杰夫·内桑森 / 杰·沃尔伯特
主演: 约翰尼·德普 / 哈维尔·巴登 / 杰弗里·拉什 / 布伦顿·思韦茨 / 卡雅·斯考达里奥 / 凯文·麦克纳利 / 格什菲·法拉哈尼 / 约翰尼·德普 / 凯拉·奈特莉 / 斯蒂芬·格拉汉姆 / 大卫·文翰 / 保罗·麦卡特尼 / 马丁·科勒巴 / 亚当·布朗 / 丹尼·基兰 / 马赫什·扎杜 / 胡安·卡洛斯·凡希多
类型: 动作 / 奇幻 / 冒险
制片国家/地区: 美国
语言: 英语
上映日期: 2017-05-26(中国大陆/美国)
片长: 129分钟
又名: 加勒比海盗:恶灵启航(港) / 加勒比海盗 神鬼奇航:死无对证(台) / 加勒比海盗5:亡灵的缄默 / 加勒比海盗5:亡者无言 / 加勒比海盗5:死人不会告密 / Pirates of the Caribbean 5
IMDb链接: tt1790809

加勒比海盗5:死无对证的剧情简介 · · · · · ·
  故事发生在《加勒比海盗3:世界的尽头》沉船湾之战20年后。 男孩亨利(布兰顿·思怀兹 Brenton Thwaites 饰)随英国海军出航寻找被聚魂棺诅咒的父亲“深海阎王”威尔·特纳(奥兰多·布鲁姆 Orlando Bloom 饰),却在百慕大三角遭遇被解封的亡灵萨拉查船长(哈维尔·巴登 Javier Bardem 饰)。获取自由的萨拉查屠尽加勒比海盗,征服了整个海域,手刃了“黑胡子”爱德华·蒂奇(伊恩·麦柯肖恩 Ian McShane 饰)的里海海盗王赫克托·巴博萨船长(杰弗里·拉什 Geoffrey Rush 饰)在女巫Haifaa Meni(格什菲·法拉哈尼 Golshifteh Farahani 饰)口中得知了萨拉查的真实目的:为寻找他的宿敌杰克船长(约翰尼·德普 Johnny Depp 饰)。海盗的命运皆压在落魄的老杰克被封印的黑珍珠号,以及天文学家卡琳娜·史密斯(卡雅·斯考达里奥 Kaya Scodelario 饰)口中的远古三叉戟上。



加勒比海盗5:死无对证截图







Video
ID                                       : 1
Format                                   : AVC
Format/Info                              : Advanced Video Codec
Format profile                           : High@L4.1
Format settings, CABAC                   : Yes
Format settings, ReFrames                : 3 frames
Codec ID                                 : V_MPEG4/ISO/AVC
Duration                                 : 2 h 9 min
Nominal bit rate                         : 16.0 Mb/s
Width                                    : 1 920 pixels
Height                                   : 1 080 pixels
Display aspect ratio                     : 16:9
Frame rate mode                          : Constant
Frame rate                               : 23.976 (24000/1001) FPS
Color space                              : YUV
Chroma subsampling                       : 4:2:0
Bit depth                                : 8 bits
Scan type                                : Progressive
Bits/(Pixel*Frame)                       : 0.322
Title                                    : Pirates.of.the.Caribbean.Dead.Men.Tell.No.Tales.2017.1080p.3D.BluRay.Half-OU.x264.DTS-HD.MA.7.1-FGT
Writing library                          : x264 core 148
Encoding settings                        : cabac=1 / ref=3 / deblock=1:-1:-1 / analyse=0x3:0 / me=hex / subme=5 / psy=1 / psy_rd=1.00:0.00 / mixed_ref=0 / me_range=16 / chroma_me=1 / trellis=1 / 8x8dct=1 / cqm=0 / deadzone=21,11 / fast_pskip=0 / chroma_qp_offset=0 / threads=8 / lookahead_threads=2 / sliced_threads=0 / nr=0 / decimate=1 / interlaced=0 / bluray_compat=0 / constrained_intra=0 / bframes=2 / b_pyramid=0 / b_adapt=1 / b_bias=0 / direct=1 / weightb=0 / open_gop=0 / weightp=0 / keyint=24 / keyint_min=2 / scenecut=40 / intra_refresh=0 / rc=abr / mbtree=0 / bitrate=16000 / ratetol=1.0 / qcomp=0.60 / qpmin=0 / qpmax=69 / qpstep=4 / ip_ratio=1.40 / pb_ratio=1.30 / aq=1:1.00
Default                                  : Yes
Forced                                   : No
Color range                              : Limited
Color primaries                          : BT.709
Transfer characteristics                 : BT.709
Matrix coefficients                      : BT.709

Audio #1
ID                                       : 2
Format                                   : DTS
Format/Info                              : Digital Theater Systems
Format profile                           : MA / Core
Mode                                     : 16
Format settings, Endianness              : Big
Codec ID                                 : A_DTS
Duration                                 : 2 h 9 min
Bit rate mode                            : Variable / Constant
Bit rate                                 : Unknown / 1 509 kb/s
Channel(s)                               : 8 channels / 6 channels
Channel positions                        : Front: L C R, Side: L R, Back: L R, LFE / Front: L C R, Side: L R, LFE
Sampling rate                            : 48.0 kHz
Frame rate                               : 93.750 FPS (512 spf)
Bit depth                                : 24 bits
Compression mode                         : Lossless / Lossy
Title                                    : Pirates.of.the.Caribbean.Dead.Men.Tell.No.Tales.2017.1080p.3D.BluRay.Half-OU.x264.DTS-HD.MA.7.1-FGT
Language                                 : English
Default                                  : Yes
Forced                                   : No

Audio #2
ID                                       : 3
Format                                   : DTS
Format/Info                              : Digital Theater Systems
Mode                                     : 16
Format settings, Endianness              : Big
Codec ID                                 : A_DTS
Duration                                 : 2 h 9 min
Bit rate mode                            : Constant
Bit rate                                 : 1 509 kb/s
Channel(s)                               : 6 channels
Channel positions                        : Front: L C R, Side: L R, LFE
Sampling rate                            : 48.0 kHz
Frame rate                               : 93.750 FPS (512 spf)
Bit depth                                : 24 bits
Compression mode                         : Lossy
Stream size                              : 1.36 GiB (5%)
Title                                    : Pirates.of.the.Caribbean.Dead.Men.Tell.No.Tales.2017.1080p.3D.BluRay.Half-OU.x264.DTS-HD.MA.7.1-FGT
Language                                 : English
Default                                  : No
Forced                                   : No

Audio #3
ID                                       : 4
Format                                   : DTS
Format/Info                              : Digital Theater Systems
Format profile                           : HRA / Core
Mode                                     : 16
Format settings, Endianness              : Big
Codec ID                                 : A_DTS
Duration                                 : 2 h 9 min
Bit rate mode                            : Constant
Bit rate                                 : 2 046 kb/s / 1 509 kb/s
Channel(s)                               : 6 channels
Channel positions                        : Front: L C R, Side: L R, LFE
Sampling rate                            : 48.0 kHz
Frame rate                               : 93.750 FPS (512 spf)
Bit depth                                : 24 bits
Compression mode                         : Lossy
Stream size                              : 1.85 GiB (7%)
Title                                    : Pirates.of.the.Caribbean.Dead.Men.Tell.No.Tales.2017.1080p.3D.BluRay.Half-OU.x264.DTS-HD.MA.7.1-FGT
Language                                 : German
Default                                  : No
Forced                                   : No

Audio #4
ID                                       : 5
Format                                   : DTS
Format/Info                              : Digital Theater Systems
Mode                                     : 16
Format settings, Endianness              : Big
Codec ID                                 : A_DTS
Duration                                 : 2 h 9 min
Bit rate mode                            : Constant
Bit rate                                 : 1 509 kb/s
Channel(s)                               : 6 channels
Channel positions                        : Front: L C R, Side: L R, LFE
Sampling rate                            : 48.0 kHz
Frame rate                               : 93.750 FPS (512 spf)
Bit depth                                : 24 bits
Compression mode                         : Lossy
Stream size                              : 1.36 GiB (5%)
Title                                    : Pirates.of.the.Caribbean.Dead.Men.Tell.No.Tales.2017.1080p.3D.BluRay.Half-OU.x264.DTS-HD.MA.7.1-FGT
Language                                 : German
Default                                  : No
Forced                                   : No

Audio #5
ID                                       : 6
Format                                   : DTS
Format/Info                              : Digital Theater Systems
Mode                                     : 16
Format settings, Endianness              : Big
Codec ID                                 : A_DTS
Duration                                 : 2 h 9 min
Bit rate mode                            : Constant
Bit rate                                 : 1 509 kb/s
Channel(s)                               : 6 channels
Channel positions                        : Front: L C R, Side: L R, LFE
Sampling rate                            : 48.0 kHz
Frame rate                               : 93.750 FPS (512 spf)
Bit depth                                : 24 bits
Compression mode                         : Lossy
Stream size                              : 1.36 GiB (5%)
Title                                    : Pirates.of.the.Caribbean.Dead.Men.Tell.No.Tales.2017.1080p.3D.BluRay.Half-OU.x264.DTS-HD.MA.7.1-FGT
Language                                 : Italian
Default                                  : No
Forced                                   : No

Text #1
ID                                       : 7
Format                                   : PGS
Muxing mode                              : zlib
Codec ID                                 : S_HDMV/PGS
Codec ID/Info                            : Picture based subtitle format used on BDs/HD-DVDs
Title                                    : English-PGS
Language                                 : English
Default                                  : Yes
Forced                                   : No

Text #2
ID                                       : 8
Format                                   : PGS
Muxing mode                              : zlib
Codec ID                                 : S_HDMV/PGS
Codec ID/Info                            : Picture based subtitle format used on BDs/HD-DVDs
Title                                    : German-PGS
Language                                 : German
Default                                  : No
Forced                                   : No

Text #3
ID                                       : 9
Format                                   : PGS
Muxing mode                              : zlib
Codec ID                                 : S_HDMV/PGS
Codec ID/Info                            : Picture based subtitle format used on BDs/HD-DVDs
Title                                    : italian-PGS
Language                                 : Italian
Default                                  : No
Forced                                   : No

Text #4
ID                                       : 10
Format                                   : PGS
Muxing mode                              : zlib
Codec ID                                 : S_HDMV/PGS
Codec ID/Info                            : Picture based subtitle format used on BDs/HD-DVDs
Title                                    : German-FORCED-PGS
Language                                 : German
Default                                  : No
Forced                                   : No

Text #5
ID                                       : 11
Format                                   : PGS
Muxing mode                              : zlib
Codec ID                                 : S_HDMV/PGS
Codec ID/Info                            : Picture based subtitle format used on BDs/HD-DVDs
Title                                    : Italian-FORCED-PGS
Language                                 : Italian
Default                                  : No
Forced                                   : No

Menu
00:00:00.000                             : en01)00:00:00:000
00:05:49.515                             : en02)00:05:49:515
00:08:34.222                             : en03)00:08:34:222
00:13:40.820                             : en04)00:13:40:820
00:16:29.154                             : en05)00:16:29:154
00:22:33.852                             : en06)00:22:33:852
00:25:19.267                             : en07)00:25:19:267
00:28:06.101                             : en000:28:06:101
00:31:41.774                             : en09)00:31:41:774
00:33:44.814                             : en10)00:33:44:814
00:37:02.053                             : en11)00:37:02:053
00:42:27.711                             : en12)00:42:27:711
00:49:09.071                             : en13)00:49:09:071
00:54:00.278                             : en14)00:54:00:278
00:57:19.394                             : en15)00:57:19:394
01:00:38.718                             : en16)01:00:38:718
01:08:29.939                             : en17)01:08:29:939
01:11:57.021                             : en101:11:57:021
01:16:50.939                             : en19)01:16:50:939
01:19:27.471                             : en20)01:19:27:471
01:25:04.808                             : en21)01:25:04:808
01:27:42.173                             : en22)01:27:42:173
01:31:43.789                             : en23)01:31:43:789
01:38:22.813                             : en24)01:38:22:813
01:42:36.775                             : en25)01:42:36:775
01:47:23.562                             : en26)01:47:23:562
01:52:58.688                             : en27)01:52:58:688
01:59:09.934                             : en201:59:09:934

Pirates.of.the.Caribbean.Dead.Men.Tell.No.Tales.2017.1080p.3D.BluRay.Half-OU.x26.torrent

63.88 KB, 下载次数: 39

电影交流QQ群: 498117193

0

主题

9

帖子

1

影币

观众

Rank: 1

积分
1
注册时间
2018-3-18
最后登录
2018-4-16
发表于 2018-3-18 09:44:37 | 显示全部楼层
谢谢分享,谢谢分享
电影交流QQ群: 498117193
您需要登录后才可以回帖 登录 | 注册

本版积分规则

小黑屋|手机版|BT探索

GMT+8, 2018-5-23 15:22

Powered by Discuz! X3.2

© 2001-2013 Comsenz Inc.

快速回复 返回顶部 返回列表