BT探索

 找回密码
 注册
查看: 456|回复: 0

[3D] 赛车总动员3.Cars.3.2017.1080p.3D.BluRay.Half-SBS.x264.DTS-HD.MA.7.1-FGT.20.96GB

[复制链接]

3万

主题

4万

帖子

14万

影币

管理员

Rank: 8Rank: 8Rank: 8Rank: 8Rank: 8Rank: 8Rank: 8Rank: 8

积分
144748
注册时间
2010-9-1
最后登录
2018-12-18

Medal No.1Medal No.2Medal No.3Medal No.4Medal No.5Medal No.6Medal No.7Medal No.8Medal No.9Medal No.10

发表于 2017-11-10 10:10:05 | 显示全部楼层 |阅读模式
赛车总动员3海报


导演: 布莱恩·菲
编剧: 布莱恩·菲 / 本·奎因 / 伊尔·波戴尔 / 乔纳森·E·斯图尔特 / 基尔·默里 / 鲍勃·彼德森 / 迈克·里奇
主演: 欧文·威尔逊 / 克里斯黛拉·阿朗索 / 克里斯·库珀 / 内森·菲利安 / 王牌接线员拉里 / 艾米·汉莫 / 雷·马格利奥齐 / 托尼·夏尔赫布 / 邦尼·亨特 / 丽亚·德拉利亚 / 凯丽·华盛顿 / 鲍勃·科斯塔斯 / 玛格·马丁戴尔 / 达雷尔·沃尔特里普 / 小伊塞亚·维特洛克 / 保罗·杜利 / 凯瑟琳·海蒙德 / 切奇·马林
类型: 喜剧 / 动画 / 冒险
制片国家/地区: 美国
语言: 英语
上映日期: 2017-08-25(中国大陆) / 2017-06-16(美国)
片长: 102分钟
又名: 反斗车王3(港) / Cars 3:闪电再起(台) / 赛车总动员3 / 汽车总动员3 / 小汽车的故事3 / 飞车正传3
IMDb链接: tt3606752

赛车总动员3剧情简介 · · · · · ·
  讲述世界冠军闪电麦坤已成为当代车坛的传奇人物,曾五次夺得活塞杯冠军。但车坛风云突变,新车辈出,这让闪电麦坤的优势受到巨大威胁,更可怕的是,麦坤的自信也日渐瓦解。为了重返巅峰,闪电麦坤背水一战,但他对竞速的热爱,能为其回归之战注满能量吗?而除了麦坤外,影片中还有两位关键角色——酷姐拉米雷兹与黑风暴杰克逊。前者是一个阳光但严厉的赛车技师,将帮助麦坤重回巅峰;后者造型酷炫、速度奇快无比,是新一代赛车中的领跑者,也是麦坤最大的竞争对手。

赛车总动员3截图








Video
ID                                       : 1
Format                                   : AVC
Format/Info                              : Advanced Video Codec
Format profile                           : High@L4.1
Format settings                          : CABAC / 3 Ref Frames
Format settings, CABAC                   : Yes
Format settings, ReFrames                : 3 frames
Codec ID                                 : V_MPEG4/ISO/AVC
Duration                                 : 1 h 42 min
Nominal bit rate                         : 15.5 Mb/s
Width                                    : 1 920 pixels
Height                                   : 1 080 pixels
Display aspect ratio                     : 16:9
Frame rate mode                          : Constant
Frame rate                               : 23.976 (24000/1001) FPS
Color space                              : YUV
Chroma subsampling                       : 4:2:0
Bit depth                                : 8 bits
Scan type                                : Progressive
Bits/(Pixel*Frame)                       : 0.312
Title                                    : Cars.3.2017.1080p.3D.BluRay.Half-SBS.x264.DTS-HD.MA.7.1-FGT
Writing library                          : x264 core 148
Encoding settings                        : cabac=1 / ref=3 / deblock=1:-1:-1 / analyse=0x3:0 / me=hex / subme=5 / psy=1 / psy_rd=1.00:0.00 / mixed_ref=0 / me_range=16 / chroma_me=1 / trellis=1 / 8x8dct=1 / cqm=0 / deadzone=21,11 / fast_pskip=0 / chroma_qp_offset=0 / threads=24 / lookahead_threads=6 / sliced_threads=0 / nr=0 / decimate=1 / interlaced=0 / bluray_compat=0 / constrained_intra=0 / bframes=2 / b_pyramid=0 / b_adapt=1 / b_bias=0 / direct=1 / weightb=0 / open_gop=0 / weightp=0 / keyint=24 / keyint_min=2 / scenecut=40 / intra_refresh=0 / rc=abr / mbtree=0 / bitrate=15500 / ratetol=1.0 / qcomp=0.60 / qpmin=0 / qpmax=69 / qpstep=4 / ip_ratio=1.40 / pb_ratio=1.30 / aq=1:1.00
Default                                  : Yes
Forced                                   : No
Color range                              : Limited
Color primaries                          : BT.709
Transfer characteristics                 : BT.709
Matrix coefficients                      : BT.709

Audio #1
ID                                       : 2
Format                                   : DTS
Format/Info                              : Digital Theater Systems
Format profile                           : MA / Core
Codec ID                                 : A_DTS
Duration                                 : 1 h 42 min
Bit rate mode                            : Variable / Constant
Bit rate                                 : Unknown / 1 509 kb/s
Channel(s)                               : 8 channels / 6 channels
Channel positions                        : Front: L C R, Side: L R, Back: L R, LFE / Front: L C R, Side: L R, LFE
Sampling rate                            : 48.0 kHz
Frame rate                               : 93.750 FPS (512 SPF)
Bit depth                                : 16 bits
Compression mode                         : Lossless / Lossy
Title                                    : Cars.3.2017.1080p.3D.BluRay.Half-SBS.x264.DTS-HD.MA.7.1-FGT
Language                                 : English
Default                                  : Yes
Forced                                   : No

Audio #2
ID                                       : 3
Format                                   : DTS
Format/Info                              : Digital Theater Systems
Format profile                           : HRA / Core
Codec ID                                 : A_DTS
Duration                                 : 1 h 42 min
Bit rate mode                            : Constant
Bit rate                                 : 2 046 kb/s / 1 509 kb/s
Channel(s)                               : 6 channels
Channel positions                        : Front: L C R, Side: L R, LFE
Sampling rate                            : 48.0 kHz
Frame rate                               : 93.750 FPS (512 SPF)
Bit depth                                : 24 bits
Compression mode                         : Lossy
Stream size                              : 1.46 GiB (7%)
Title                                    : Cars.3.2017.1080p.3D.BluRay.Half-SBS.x264.DTS-HD.MA.7.1-FGT
Language                                 : English
Default                                  : No
Forced                                   : No

Audio #3
ID                                       : 4
Format                                   : AC-3
Format/Info                              : Audio Coding 3
Codec ID                                 : A_AC3
Duration                                 : 1 h 42 min
Bit rate mode                            : Constant
Bit rate                                 : 320 kb/s
Channel(s)                               : 2 channels
Channel positions                        : Front: L R
Sampling rate                            : 48.0 kHz
Frame rate                               : 31.250 FPS (1536 SPF)
Bit depth                                : 16 bits
Compression mode                         : Lossy
Stream size                              : 234 MiB (1%)
Title                                    : Cars.3.2017.1080p.3D.BluRay.Half-SBS.x264.DTS-HD.MA.7.1-FGT
Language                                 : English
Service kind                             : Complete Main
Default                                  : No
Forced                                   : No

Audio #4
ID                                       : 5
Format                                   : AC-3
Format/Info                              : Audio Coding 3
Codec ID                                 : A_AC3
Duration                                 : 1 h 42 min
Bit rate mode                            : Constant
Bit rate                                 : 320 kb/s
Channel(s)                               : 2 channels
Channel positions                        : Front: L R
Sampling rate                            : 48.0 kHz
Frame rate                               : 31.250 FPS (1536 SPF)
Bit depth                                : 16 bits
Compression mode                         : Lossy
Stream size                              : 234 MiB (1%)
Title                                    : Cars.3.2017.1080p.3D.BluRay.Half-SBS.x264.DTS-HD.MA.7.1-FGT
Language                                 : English
Service kind                             : Complete Main
Default                                  : No
Forced                                   : No

Audio #5
ID                                       : 6
Format                                   : AC-3
Format/Info                              : Audio Coding 3
Codec ID                                 : A_AC3
Duration                                 : 1 h 42 min
Bit rate mode                            : Constant
Bit rate                                 : 640 kb/s
Channel(s)                               : 6 channels
Channel positions                        : Front: L C R, Side: L R, LFE
Sampling rate                            : 48.0 kHz
Frame rate                               : 31.250 FPS (1536 SPF)
Bit depth                                : 16 bits
Compression mode                         : Lossy
Stream size                              : 469 MiB (2%)
Title                                    : Cars.3.2017.1080p.3D.BluRay.Half-SBS.x264.DTS-HD.MA.7.1-FGT
Language                                 : Hindi
Service kind                             : Complete Main
Default                                  : No
Forced                                   : No

Audio #6
ID                                       : 7
Format                                   : DTS
Format/Info                              : Digital Theater Systems
Codec ID                                 : A_DTS
Duration                                 : 1 h 42 min
Bit rate mode                            : Constant
Bit rate                                 : 1 509 kb/s
Channel(s)                               : 6 channels
Channel positions                        : Front: L C R, Side: L R, LFE
Sampling rate                            : 48.0 kHz
Frame rate                               : 93.750 FPS (512 SPF)
Bit depth                                : 24 bits
Compression mode                         : Lossy
Stream size                              : 1.08 GiB (5%)
Title                                    : Cars.3.2017.1080p.3D.BluRay.Half-SBS.x264.DTS-HD.MA.7.1-FGT
Language                                 : Polish
Default                                  : No
Forced                                   : No

Audio #7
ID                                       : 8
Format                                   : DTS
Format/Info                              : Digital Theater Systems
Codec ID                                 : A_DTS
Duration                                 : 1 h 42 min
Bit rate mode                            : Constant
Bit rate                                 : 1 509 kb/s
Channel(s)                               : 6 channels
Channel positions                        : Front: L C R, Side: L R, LFE
Sampling rate                            : 48.0 kHz
Frame rate                               : 93.750 FPS (512 SPF)
Bit depth                                : 24 bits
Compression mode                         : Lossy
Stream size                              : 1.08 GiB (5%)
Title                                    : Cars.3.2017.1080p.3D.BluRay.Half-SBS.x264.DTS-HD.MA.7.1-FGT
Language                                 : Spanish
Default                                  : No
Forced                                   : No

Audio #8
ID                                       : 9
Format                                   : DTS
Format/Info                              : Digital Theater Systems
Codec ID                                 : A_DTS
Duration                                 : 1 h 42 min
Bit rate mode                            : Constant
Bit rate                                 : 1 509 kb/s
Channel(s)                               : 6 channels
Channel positions                        : Front: L C R, Side: L R, LFE
Sampling rate                            : 48.0 kHz
Frame rate                               : 93.750 FPS (512 SPF)
Bit depth                                : 24 bits
Compression mode                         : Lossy
Stream size                              : 1.08 GiB (5%)
Title                                    : Cars.3.2017.1080p.3D.BluRay.Half-SBS.x264.DTS-HD.MA.7.1-FGT
Language                                 : Catalan
Default                                  : No
Forced                                   : No

Audio #9
ID                                       : 10
Format                                   : DTS
Format/Info                              : Digital Theater Systems
Codec ID                                 : A_DTS
Duration                                 : 1 h 42 min
Bit rate mode                            : Constant
Bit rate                                 : 1 509 kb/s
Channel(s)                               : 6 channels
Channel positions                        : Front: L C R, Side: L R, LFE
Sampling rate                            : 48.0 kHz
Frame rate                               : 93.750 FPS (512 SPF)
Bit depth                                : 16 bits
Compression mode                         : Lossy
Stream size                              : 1.08 GiB (5%)
Title                                    : Cars.3.2017.1080p.3D.BluRay.Half-SBS.x264.DTS-HD.MA.7.1-FGT
Language                                 : English
Default                                  : No
Forced                                   : No

Audio #10
ID                                       : 11
Format                                   : DTS
Format/Info                              : Digital Theater Systems
Codec ID                                 : A_DTS
Duration                                 : 1 h 42 min
Bit rate mode                            : Constant
Bit rate                                 : 1 509 kb/s
Channel(s)                               : 6 channels
Channel positions                        : Front: L C R, Side: L R, LFE
Sampling rate                            : 48.0 kHz
Frame rate                               : 93.750 FPS (512 SPF)
Bit depth                                : 24 bits
Compression mode                         : Lossy
Stream size                              : 1.08 GiB (5%)
Title                                    : Cars.3.2017.1080p.3D.BluRay.Half-SBS.x264.DTS-HD.MA.7.1-FGT
Language                                 : English
Default                                  : No
Forced                                   : No

Text #1
ID                                       : 12
Format                                   : PGS
Muxing mode                              : zlib
Codec ID                                 : S_HDMV/PGS
Codec ID/Info                            : Picture based subtitle format used on BDs/HD-DVDs
Title                                    : English-PGS
Language                                 : English
Default                                  : Yes
Forced                                   : No

Text #2
ID                                       : 13
Format                                   : PGS
Muxing mode                              : zlib
Codec ID                                 : S_HDMV/PGS
Codec ID/Info                            : Picture based subtitle format used on BDs/HD-DVDs
Title                                    : Spanish-PGS
Language                                 : Spanish
Default                                  : No
Forced                                   : No

Text #3
ID                                       : 14
Format                                   : PGS
Muxing mode                              : zlib
Codec ID                                 : S_HDMV/PGS
Codec ID/Info                            : Picture based subtitle format used on BDs/HD-DVDs
Title                                    : Polish-PGS
Language                                 : Polish
Default                                  : No
Forced                                   : No

Text #4
ID                                       : 15
Format                                   : PGS
Muxing mode                              : zlib
Codec ID                                 : S_HDMV/PGS
Codec ID/Info                            : Picture based subtitle format used on BDs/HD-DVDs
Title                                    : Polish-FORCED-PGS
Language                                 : Polish
Default                                  : No
Forced                                   : No

Text #5
ID                                       : 16
Format                                   : PGS
Muxing mode                              : zlib
Codec ID                                 : S_HDMV/PGS
Codec ID/Info                            : Picture based subtitle format used on BDs/HD-DVDs
Title                                    : Hindi-FORCED-PGS
Language                                 : Hindi
Default                                  : No
Forced                                   : No

Menu
00:00:00.000                             : en01)00:00:00:000
00:04:57.255                             : en02)00:04:57:255
00:10:54.987                             : en03)00:10:54:987
00:13:59.421                             : en04)00:13:59:421
00:18:15.344                             : en05)00:18:15:344
00:21:07.641                             : en06)00:21:07:641
00:34:08.880                             : en07)00:34:08:880
00:37:52.103                             : en000:37:52:103
00:42:44.812                             : en09)00:42:44:812
00:49:44.397                             : en10)00:49:44:397
00:53:57.734                             : en11)00:53:57:734
00:58:17.702                             : en12)00:58:17:702
00:59:27.522                             : en13)00:59:27:522
01:02:15.940                             : en14)01:02:15:940
01:06:35.533                             : en15)01:06:35:533
01:08:33.108                             : en16)01:08:33:108
01:15:48.126                             : en17)01:15:48:126
01:20:57.852                             : en101:20:57:852
01:29:42.418                             : en19)01:29:42:418
01:32:17.031                             : en20)01:32:17:031
01:34:00.092                             : en21)01:34:00:092
01:42:24.763                             : en22)01:42:24:763

Cars.3.2017.1080p.3D.BluRay.Half-SBS.x264.DTS-HD.MA.7.1.torrent

52.94 KB, 下载次数: 42

QQ电影交流群: 498117193
您需要登录后才可以回帖 登录 | 注册

本版积分规则

BT探索

GMT+8, 2018-12-19 00:47

Powered by Discuz! X3.2

© 2001-2013 Comsenz Inc.

快速回复 返回顶部 返回列表