BT探索

 找回密码
 注册
查看: 441|回复: 0

[3D] 星际特工:千星之城.2017.3D.1080p.BluRay.x264-VETO.8.74 GB

[复制链接]

3万

主题

4万

帖子

14万

影币

管理员

Rank: 8Rank: 8Rank: 8Rank: 8Rank: 8Rank: 8Rank: 8Rank: 8

积分
144748
注册时间
2010-9-1
最后登录
2018-12-18

Medal No.1Medal No.2Medal No.3Medal No.4Medal No.5Medal No.6Medal No.7Medal No.8Medal No.9Medal No.10

发表于 2017-12-4 10:03:20 | 显示全部楼层 |阅读模式
海报


导演: 吕克·贝松
编剧: 吕克·贝松 / 皮埃尔·克里斯汀 / 让-克劳德·梅济耶尔
主演: 戴恩·德哈恩 / 卡拉·迪瓦伊 / 克里夫·欧文 / 蕾哈娜 / 伊桑·霍克 / 赫比·汉考克 / 吴亦凡 / 萨姆·斯普卢尔 / 阿兰·夏巴 / 鲁特格尔·哈尔 / 泽维尔·吉亚诺利 / 约翰·古德曼 / 山姆·道格拉斯
类型: 动作 / 科幻 / 冒险
制片国家/地区: 法国
语言: 英语 / 法语
上映日期: 2017-08-25(中国大陆) / 2017-07-20(德国) / 2017-07-26(法国)
片长: 137分钟
又名: 瓦莱里安与一千颗行星的城市 / 星际特工瓦雷诺:千星之城(台) / 瓦莱里安与千星之城 / Valérian / Valerian
IMDb链接: tt2239822

星际特工:千星之城的剧情简介 · · · · · ·

  故事设定在28世纪,人类发现了如何进行时空旅行。Valerian(戴恩·德哈恩 Dane DeHaan 饰)和Laureline(卡拉·迪瓦伊 Cara Delevingne 饰)是“时空服务”的特工,负责保护地球帝国的行星。他们像往常一样执行着星际任务,但在执行一次任务时,他们偶然发现了一个秘密,而他们也被卷入其中,越陷越深……


截图


Video
ID                                       : 1
Format                                   : AVC
Format/Info                              : Advanced Video Codec
Format profile                           : High@L4.1
MultiView_Count                          : 2
MultiView_Layout                         : Side by Side (left eye first)
Format settings                          : CABAC / 5 Ref Frames
Format settings, CABAC                   : Yes
Format settings, RefFrames               : 5 frames
Codec ID                                 : V_MPEG4/ISO/AVC
Duration                                 : 2 h 17 min
Bit rate                                 : 8 488 kb/s
Width                                    : 1 920 pixels
Height                                   : 808 pixels
Display aspect ratio                     : 2.40:1
Frame rate mode                          : Constant
Frame rate                               : 23.976 (23976/1000) FPS
Original frame rate                      : 23.976 (24000/1001) FPS
Color space                              : YUV
Chroma subsampling                       : 4:2:0
Bit depth                                : 8 bits
Scan type                                : Progressive
Bits/(Pixel*Frame)                       : 0.228
Stream size                              : 8.12 GiB (93%)
Writing library                          : x264 core 152 r2851 ba24899
Encoding settings                        : cabac=1 / ref=5 / deblock=1:1:1 / analyse=0x3:0x133 / me=umh / subme=8 / psy=1 / psy_rd=1.00:0.00 / mixed_ref=1 / me_range=16 / chroma_me=1 / trellis=1 / 8x8dct=1 / cqm=0 / deadzone=21,11 / fast_pskip=0 / chroma_qp_offset=-2 / threads=16 / lookahead_threads=2 / sliced_threads=0 / nr=0 / decimate=1 / interlaced=0 / bluray_compat=0 / constrained_intra=0 / bframes=3 / b_pyramid=2 / b_adapt=2 / b_bias=0 / direct=3 / weightb=1 / open_gop=0 / weightp=2 / keyint=250 / keyint_min=23 / scenecut=40 / intra_refresh=0 / rc_lookahead=50 / rc=2pass / mbtree=1 / bitrate=8488 / ratetol=1.0 / qcomp=0.60 / qpmin=0 / qpmax=69 / qpstep=4 / cplxblur=20.0 / qblur=0.5 / ip_ratio=1.40 / aq=1:1.00
Default                                  : Yes
Forced                                   : No

Audio
ID                                       : 2
Format                                   : AC-3
Format/Info                              : Audio Coding 3
Format settings, Endianness              : Big
Codec ID                                 : A_AC3
Duration                                 : 2 h 17 min
Bit rate mode                            : Constant
Bit rate                                 : 640 kb/s
Channel(s)                               : 6 channels
Channel positions                        : Front: L C R, Side: L R, LFE
Sampling rate                            : 48.0 kHz
Frame rate                               : 31.250 FPS (1536 SPF)
Bit depth                                : 16 bits
Compression mode                         : Lossy
Stream size                              : 627 MiB (7%)
Language                                 : English
Service kind                             : Complete Main
Default                                  : Yes
Forced                                   : No

Text
ID                                       : 3
Format                                   : VobSub
Muxing mode                              : zlib
Codec ID                                 : S_VOBSUB
Codec ID/Info                            : Picture based subtitle format used on DVDs
Duration                                 : 6 min 33 s
Bit rate                                 : 1 099 b/s
Count of elements                        : 6
Stream size                              : 52.9 KiB (0%)
Language                                 : English
Default                                  : Yes
Forced                                   : Yes

Menu
00:00:00.000                             : en:00:00:00.000
00:11:12.213                             : en:00:11:12.213
00:20:10.501                             : en:00:20:10.501
00:30:38.336                             : en:00:30:38.336
00:41:21.562                             : en:00:41:21.562
00:51:37.344                             : en:00:51:37.344
01:01:54.920                             : en:01:01:54.920
01:10:50.997                             : en:01:10:50.997
01:20:27.489                             : en:01:20:27.489
01:34:23.741                             : en:01:34:23.741
01:44:35.102                             : en:01:44:35.102
01:57:01.723                             : en:01:57:01.723
02:06:18.196                             : en:02:06:18.196

Valerian.and.the.City.of.a.Thousand.Planets.2017.3D.1080p.BluRay.x264.torrent

88.41 KB, 下载次数: 72

QQ电影交流群: 498117193
您需要登录后才可以回帖 登录 | 注册

本版积分规则

BT探索

GMT+8, 2018-12-19 01:22

Powered by Discuz! X3.2

© 2001-2013 Comsenz Inc.

快速回复 返回顶部 返回列表