BT探索

 找回密码
 注册
搜索
查看: 134|回复: 0

[HDR] 老爸当家2.2017.2160p.BluRay.x265.10bit.HDR.TrueHD.7.1.Atmos.23.45 GB

[复制链接]

3万

主题

4万

帖子

12万

影币

管理员

Rank: 8Rank: 8Rank: 8Rank: 8Rank: 8Rank: 8Rank: 8Rank: 8

积分
121010
注册时间
2010-9-1
最后登录
2018-6-19

Medal No.1Medal No.2Medal No.3Medal No.4Medal No.5Medal No.6Medal No.7Medal No.8Medal No.9Medal No.10

发表于 2018-2-22 12:11:27 | 显示全部楼层 |阅读模式
海报


导演: 希恩·安德鲁斯
编剧: 希恩·安德鲁斯 / 布莱恩·伯恩斯 / 约翰·莫里斯
主演: 威尔·法瑞尔 / 马克·沃尔伯格 / 梅尔·吉布森 / 约翰·利思戈 / 琳达·卡德里尼 / 亚历桑德拉·安布罗休 / 欧文·瓦卡罗 / 斯嘉丽·艾斯特维兹 / 迪迪·柯斯汀 / 约翰·塞纳 / 安德利娅·安德斯
类型: 喜剧
制片国家/地区: 美国
语言: 英语
上映日期: 2017-11-10(美国)
片长: 100分钟
又名: 左两爸右两爸(港) / 家有两个爸x2(台) / 亲爹回来啦2 / 好爸成叕
IMDb链接: tt5657846

老爸当家2的剧情简介 · · · · · ·
  [老爸当家2]导演希恩·安德鲁斯,首部主演威尔·法瑞尔、马克·沃尔伯格回归,新加盟者包括梅尔·吉布森、约翰·利特高。续集将继续围绕威尔·法瑞尔、马克·沃尔伯格分饰的两个性格截然不同的老爸展开。北美定档11.10。


截图







Video
ID                                       : 1
Format                                   : HEVC
Format/Info                              : High Efficiency Video Coding
Format profile                           : Main 10@L5.1@High
Codec ID                                 : V_MPEGH/ISO/HEVC
Duration                                 : 1 h 39 min
Bit rate                                 : 28.0 Mb/s
Width                                    : 3 840 pixels
Height                                   : 2 160 pixels
Display aspect ratio                     : 16:9
Frame rate mode                          : Constant
Frame rate                               : 23.976 (24000/1001) FPS
Color space                              : YUV
Chroma subsampling                       : 4:2:0 (Type 2)
Bit depth                                : 10 bits
Bits/(Pixel*Frame)                       : 0.141
Stream size                              : 19.5 GiB (84%)
Writing library                          : x265 2.6+33-193c2b20b0d8:[Windows][GCC 6.3.0][64 bit] 10bit
Encoding settings                        : cpuid=1173503 / frame-threads=4 / numa-pools=20 / wpp / no-pmode / no-pme / no-psnr / no-ssim / log-level=2 / input-csp=1 / input-res=3840x2160 / interlace=0 / total-frames=143427 / level-idc=51 / high-tier=1 / uhd-bd=1 / ref=4 / no-allow-non-conformance / repeat-headers / annexb / aud / hrd / info / hash=0 / no-temporal-layers / no-open-gop / min-keyint=1 / keyint=24 / gop-lookahead=0 / bframes=4 / b-adapt=2 / b-pyramid / bframe-bias=0 / rc-lookahead=25 / lookahead-slices=4 / scenecut=40 / radl=0 / no-intra-refresh / ctu=64 / min-cu-size=8 / rect / no-amp / max-tu-size=32 / tu-inter-depth=1 / tu-intra-depth=1 / limit-tu=0 / rdoq-level=2 / dynamic-rd=0.00 / no-ssim-rd / signhide / no-tskip / nr-intra=0 / nr-inter=0 / no-constrained-intra / no-strong-intra-smoothing / max-merge=3 / limit-refs=3 / limit-modes / me=3 / subme=3 / merange=57 / temporal-mvp / weightp / no-weightb / no-analyze-src-pics / deblock=-3:-3 / no-sao / no-sao-non-deblock / rd=4 / no-early-skip / rskip / no-fast-intra / no-tskip-fast / no-cu-lossless / no-b-intra / no-splitrd-skip / rdpenalty=0 / psy-rd=2.00 / psy-rdoq=1.00 / no-rd-refine / no-lossless / cbqpoffs=0 / crqpoffs=0 / rc=crf / crf=17.0 / qcomp=0.60 / qpstep=4 / stats-write=0 / stats-read=0 / vbv-maxrate=160000 / vbv-bufsize=160000 / vbv-init=0.9 / crf-max=0.0 / crf-min=0.0 / ipratio=1.40 / pbratio=1.30 / aq-mode=1 / aq-strength=1.00 / cutree / zone-count=0 / no-strict-cbr / qg-size=32 / no-rc-grain / qpmax=69 / qpmin=0 / no-const-vbv / sar=1 / overscan=0 / videoformat=5 / range=0 / colorprim=9 / transfer=16 / colormatrix=9 / chromaloc=1 / chromaloc-top=2 / chromaloc-bottom=2 / display-window=0 / master-display=G(13250,34500)B(7500,3000)R(34000,16000)WP(15635,16450)L(10000000,1) / max-cll=0,0 / min-luma=0 / max-luma=1023 / log2-max-poc-lsb=8 / vui-timing-info / vui-hrd-info / slices=1 / no-opt-qp-pps / no-opt-ref-list-length-pps / no-multi-pass-opt-rps / scenecut-bias=0.05 / no-opt-cu-delta-qp / no-aq-motion / hdr / hdr-opt / no-dhdr10-opt / analysis-reuse-level=5 / scale-factor=0 / refine-intra=0 / refine-inter=0 / refine-mv=0 / no-limit-sao / ctu-info=0 / no-lowpass-dct / refine-mv-type=0 / copy-pic=1
Default                                  : Yes
Forced                                   : No
Color range                              : Limited
Color primaries                          : BT.2020
Transfer characteristics                 : PQ
Matrix coefficients                      : BT.2020 non-constant
Mastering display color primaries        : Display P3
Mastering display luminance              : min: 0.0001 cd/m2, max: 1000 cd/m2

Audio #1
ID                                       : 2
Format                                   : TrueHD
Format profile                           : TrueHD+Atmos / TrueHD
Codec ID                                 : A_TRUEHD
Duration                                 : 1 h 39 min
Bit rate mode                            : Variable
Bit rate                                 : 4 576 kb/s
Maximum bit rate                         : 7 641 kb/s
Channel(s)                               : Object Based / 8 channels
Channel positions                        : Object Based / Front: L C R, Side: L R, Back: L R, LFE
Sampling rate                            :  / 48.0 kHz
Frame rate                               : 1 200.000 FPS (40 SPF)
Compression mode                         : Lossless
Stream size                              : 3.19 GiB (14%)
Language                                 : English
Default                                  : Yes
Forced                                   : No

Audio #2
ID                                       : 3
Format                                   : AC-3
Format/Info                              : Audio Coding 3
Codec ID                                 : A_AC3
Duration                                 : 1 h 39 min
Bit rate mode                            : Constant
Bit rate                                 : 640 kb/s
Channel(s)                               : 6 channels
Channel positions                        : Front: L C R, Side: L R, LFE
Sampling rate                            : 48.0 kHz
Frame rate                               : 31.250 FPS (1536 SPF)
Bit depth                                : 16 bits
Compression mode                         : Lossy
Stream size                              : 456 MiB (2%)
Service kind                             : Complete Main
Default                                  : No
Forced                                   : No

Text #1
ID                                       : 4
Format                                   : PGS
Muxing mode                              : zlib
Codec ID                                 : S_HDMV/PGS
Codec ID/Info                            : Picture based subtitle format used on BDs/HD-DVDs
Duration                                 : 1 h 38 min
Bit rate                                 : 57.7 kb/s
Count of elements                        : 4062
Stream size                              : 40.5 MiB (0%)
Language                                 : English
Default                                  : No
Forced                                   : No

Text #2
ID                                       : 5
Format                                   : PGS
Muxing mode                              : zlib
Codec ID                                 : S_HDMV/PGS
Codec ID/Info                            : Picture based subtitle format used on BDs/HD-DVDs
Duration                                 : 1 h 38 min
Bit rate                                 : 65.9 kb/s
Count of elements                        : 4930
Stream size                              : 46.6 MiB (0%)
Title                                    : SDH
Language                                 : English
Default                                  : No
Forced                                   : No

Menu
00:00:00.000                             : en:00:00:00.000
00:08:08.530                             : en:00:08:08.530
00:16:08.092                             : en:00:16:08.092
00:21:44.053                             : en:00:21:44.053
00:27:40.158                             : en:00:27:40.158
00:32:47.424                             : en:00:32:47.424
00:40:49.030                             : en:00:40:49.030
00:47:57.166                             : en:00:47:57.166
00:52:27.895                             : en:00:52:27.895
01:00:08.730                             : en:01:00:08.730
01:08:37.363                             : en:01:08:37.363
01:15:23.102                             : en:01:15:23.102
01:26:24.846                             : en:01:26:24.846
01:33:34.943                             : en:01:33:34.943

Daddys.Home.2.2017.2160p.BluRay.x265.10bit.HDR.TrueHD.7.1.Atmos.torrent

59.26 KB, 下载次数: 6

电影交流QQ群: 498117193
您需要登录后才可以回帖 登录 | 注册

本版积分规则

小黑屋|手机版|BT探索

GMT+8, 2018-6-20 07:35

Powered by Discuz! X3.2

© 2001-2013 Comsenz Inc.

快速回复 返回顶部 返回列表