BT探索

 找回密码
 注册
搜索
查看: 206|回复: 0

[欧美] 斯大林之死.The.Death.of.Stalin.2017.720p.BluRay.X264-AMIABLE.4.38 GB

[复制链接]

3万

主题

4万

帖子

12万

影币

管理员

Rank: 8Rank: 8Rank: 8Rank: 8Rank: 8Rank: 8Rank: 8Rank: 8

积分
120834
注册时间
2010-9-1
最后登录
2018-6-18

Medal No.1Medal No.2Medal No.3Medal No.4Medal No.5Medal No.6Medal No.7Medal No.8Medal No.9Medal No.10

发表于 2018-2-23 14:48:35 | 显示全部楼层 |阅读模式
海报


导演: 阿尔曼多·伊安努奇
编剧: 阿尔曼多·伊安努奇 / 大卫·施奈德 / Ian Martin
主演: 安德丽亚·瑞斯波罗格 / 詹森·艾萨克 / 欧嘉·柯瑞兰寇 / 史蒂夫·布西密 / 鲁伯特·弗兰德 / 理查德·布雷克 / 杰弗里·塔伯 / 帕迪·康斯戴恩 / 麦克·帕林 / 戴安娜·奎克 / 西蒙·拉塞尔·比尔 / 乔纳森·阿里斯 / 尼古拉斯·伍德森 / 罗杰·阿什顿-格里菲斯 / Paul Ready
类型: 喜剧 / 传记 / 历史
制片国家/地区: 英国 / 法国
语言: 英语
上映日期: 2017-09-08(多伦多电影节) / 2017-10-20(英国)
片长: 107分钟
又名: 史达林葛屁了!(台)
IMDb链接: tt4686844

斯大林之死的剧情简介 · · · · · ·
  由苏格兰导演阿曼多·兰努奇(Armando Iannucci)执导的英语电影《斯大林之死》(The Death Of Stalin)近日开机拍摄,该片根据Fabien-Nury同名漫画改编,讲述了斯大林去世后苏共高层激烈的权力争斗。
  饰演斯大林的是美国演员阿德里安‧麦克洛格林(Adrian Mcloughlin),金球奖得主杰弗瑞·塔伯(Jeffrey Tambor)将饰演苏联领导人马林科夫,史蒂夫·布奇密(Steve Buscemi)将饰演赫鲁晓夫,前“邦女郎”奥尔加·柯瑞兰寇(Olga Kurylenko)将饰演苏联钢琴家玛丽亚·尤金娜(斯大林是在她钢琴唱片的伴奏下死去的),西蒙·拉塞尔·比尔(Simon Russell Beale)将饰演苏联二号人物贝利亚,鲁伯特·弗兰德(Rupert Friend)将饰演斯大林次子瓦西里。
  除此以外,加盟本片的还有杰森·爱萨克(Jason Isaacs)、托比·科贝尔(Toby Kebbell)等。
  斯大林是苏联历史上在位时间最长的最高领导人(1924——1953),在他的铁腕统治之下,苏联成为与美国相抗衡的超级大国。关于他的死一直存在各种阴谋论,官方给出的结论是中风导致的自然死亡,但也有人坚信他是被投毒害死的,而凶手就是克格勃(苏联情报机构)头子贝利亚。
  斯大林死后,苏联一度陷入群龙无首的状态,高层的政治斗争异常激烈。最终赫鲁晓夫等人扳倒了当时苏联实际上的二号人物——贝利亚。斯大林去世几个月后,贝利亚被作为西方间谍处以死刑。


截图


Video
ID                                       : 1
Format                                   : AVC
Format/Info                              : Advanced Video Codec
Format profile                           : High@L4.1
Format settings                          : CABAC / 5 Ref Frames
Format settings, CABAC                   : Yes
Format settings, RefFrames               : 5 frames
Codec ID                                 : V_MPEG4/ISO/AVC
Duration                                 : 1 h 46 min
Bit rate                                 : 4 360 kb/s
Width                                    : 1 280 pixels
Height                                   : 688 pixels
Display aspect ratio                     : 1.85:1
Frame rate mode                          : Constant
Frame rate                               : 24.000 FPS
Color space                              : YUV
Chroma subsampling                       : 4:2:0
Bit depth                                : 8 bits
Scan type                                : Progressive
Bits/(Pixel*Frame)                       : 0.206
Stream size                              : 3.16 GiB (72%)
Writing library                          : x264 core 155 r2901 7d0ff22
Encoding settings                        : cabac=1 / ref=5 / deblock=1:-3:-3 / analyse=0x3:0x113 / me=umh / subme=8 / psy=1 / psy_rd=1.00:0.00 / mixed_ref=1 / me_range=24 / chroma_me=1 / trellis=1 / 8x8dct=1 / cqm=0 / deadzone=21,11 / fast_pskip=1 / chroma_qp_offset=-2 / threads=21 / lookahead_threads=3 / sliced_threads=0 / nr=0 / decimate=1 / interlaced=0 / bluray_compat=0 / constrained_intra=0 / bframes=3 / b_pyramid=2 / b_adapt=2 / b_bias=0 / direct=3 / weightb=1 / open_gop=0 / weightp=2 / keyint=240 / keyint_min=24 / scenecut=40 / intra_refresh=0 / rc_lookahead=50 / rc=2pass / mbtree=1 / bitrate=4360 / ratetol=1.0 / qcomp=0.60 / qpmin=0 / qpmax=69 / qpstep=4 / cplxblur=20.0 / qblur=0.5 / ip_ratio=1.40 / aq=3:0.80
Default                                  : Yes
Forced                                   : No
Statistics Tags Issue                    : no_variable_data 1970-01-01 00:00:00 / no_variable_data 2010-02-22 21:41:29
FromStats_BitRate                        : 4358246
FromStats_Duration                       : 01:46:34.500000000
FromStats_FrameCount                     : 153468
FromStats_StreamSize                     : 3483600708

Audio
ID                                       : 2
Format                                   : DTS
Format/Info                              : Digital Theater Systems
Mode                                     : 16
Format settings, Endianness              : Big
Codec ID                                 : A_DTS
Duration                                 : 1 h 46 min
Bit rate mode                            : Constant
Bit rate                                 : 1 509 kb/s
Channel(s)                               : 6 channels
Channel positions                        : Front: L C R, Side: L R, LFE
Sampling rate                            : 48.0 kHz
Frame rate                               : 93.750 FPS (512 SPF)
Bit depth                                : 24 bits
Compression mode                         : Lossy
Stream size                              : 1.12 GiB (26%)
Language                                 : English
Default                                  : Yes
Forced                                   : No
Statistics Tags Issue                    : no_variable_data 1970-01-01 00:00:00 / no_variable_data 2010-02-22 21:41:29
FromStats_BitRate                        : 1509000
FromStats_Duration                       : 01:46:34.496000000
FromStats_FrameCount                     : 599484
FromStats_StreamSize                     : 1206161808

Text #1
ID                                       : 3
Format                                   : UTF-8
Codec ID                                 : S_TEXT/UTF8
Codec ID/Info                            : UTF-8 Plain Text
Language                                 : English
Default                                  : No
Forced                                   : No
Statistics Tags Issue                    : no_variable_data 1970-01-01 00:00:00 / no_variable_data 2010-02-22 21:41:29
FromStats_BitRate                        : 85
FromStats_Duration                       : 01:36:36.959000000
FromStats_FrameCount                     : 1706
FromStats_StreamSize                     : 62022

Text #2
ID                                       : 4
Format                                   : UTF-8
Codec ID                                 : S_TEXT/UTF8
Codec ID/Info                            : UTF-8 Plain Text
Title                                    : SDH
Language                                 : English
Default                                  : No
Forced                                   : No
Statistics Tags Issue                    : no_variable_data 1970-01-01 00:00:00 / no_variable_data 2010-02-22 21:41:29
FromStats_BitRate                        : 89
FromStats_Duration                       : 01:39:24.042000000
FromStats_FrameCount                     : 1842
FromStats_StreamSize                     : 66625

Menu
00:00:00.000                             : en:00:00:00.000
00:06:38.875                             : en:00:06:38.875
00:13:02.583                             : en:00:13:02.583
00:19:53.125                             : en:00:19:53.125
00:29:06.125                             : en:00:29:06.125
00:33:58.250                             : en:00:33:58.250
00:40:22.417                             : en:00:40:22.417
00:45:28.000                             : en:00:45:28.000
00:50:35.000                             : en:00:50:35.000
00:58:40.750                             : en:00:58:40.750
01:03:23.667                             : en:01:03:23.667
01:12:31.750                             : en:01:12:31.750
01:17:42.917                             : en:01:17:42.917
01:24:49.000                             : en:01:24:49.000
01:33:33.708                             : en:01:33:33.708
01:39:25.583                             : en:01:39:25.583

The.Death.of.Stalin.2017.720p.BluRay.X264.torrent

175.96 KB, 下载次数: 78

电影交流QQ群: 498117193
您需要登录后才可以回帖 登录 | 注册

本版积分规则

小黑屋|手机版|BT探索

GMT+8, 2018-6-19 04:52

Powered by Discuz! X3.2

© 2001-2013 Comsenz Inc.

快速回复 返回顶部 返回列表