BT探索

 找回密码
 注册
查看: 564|回复: 0

[720p] 正义联盟.Justice.League.2017.720p.BluRay.x264.DTS-HDC.9.65 GB

[复制链接]

3万

主题

4万

帖子

14万

影币

管理员

Rank: 8Rank: 8Rank: 8Rank: 8Rank: 8Rank: 8Rank: 8Rank: 8

积分
144748
注册时间
2010-9-1
最后登录
2018-12-18

Medal No.1Medal No.2Medal No.3Medal No.4Medal No.5Medal No.6Medal No.7Medal No.8Medal No.9Medal No.10

发表于 2018-2-26 13:02:05 | 显示全部楼层 |阅读模式
海报


导演: 扎克·施奈德
编剧: 扎克·施奈德 / 克里斯·特里奥 / 乔斯·韦登 / 比尔·芬格 / 鲍勃·凯恩 / 乔·舒斯特 / 杰里·西格尔 / 威廉·马斯顿
主演: 本·阿弗莱克 / 亨利·卡维尔 / 盖尔·加朵 / 埃兹拉·米勒 / 杰森·莫玛 / 雷·费舍尔 / 杰瑞米·艾恩斯 / 艾米·亚当斯 / 戴安·琳恩 / 康妮·尼尔森 / J·K·西蒙斯 / 塞伦·希德 / 艾梅柏·希尔德 / 乔·莫顿 / 丽莎·洛文·孔斯利 / 大卫·休里斯 / 迈克尔·麦克埃尔哈顿 / 理查德·克里弗特 / 英格瓦·埃盖特·西古德松 / 比利·克鲁德普 / 赛吉·康斯坦斯 / 乔·曼根尼罗 / 杰西·艾森伯格
类型: 动作 / 科幻 / 奇幻 / 冒险
官方网站: www.justiceleaguethemovie.com
制片国家/地区: 美国
语言: 英语 / 冰岛语 / 俄语
上映日期: 2017-11-17(美国/中国大陆)
片长: 120分钟
又名: The Justice League Part One / Justice League Mortal / Justice League of America
IMDb链接: tt0974015

正义联盟的剧情简介 · · · · · ·
  受到超人无私奉献的影响,蝙蝠侠重燃了对人类的信心,接受了新盟友——神奇女侠(戴安娜·普林斯)的帮助,去对抗更加强大的敌人。蝙蝠侠和神奇女侠一同寻找并招募了一支超人类联盟来抵挡新觉醒的威胁。但尽管这支队伍集结了超人、蝙蝠侠、神奇女侠、闪电侠、海王和钢骨等人,他们似乎无法阻止敌人对地球的进攻……

截图








Video
ID                                       : 1
Format                                   : AVC
Format/Info                              : Advanced Video Codec
Format profile                           : High@L4.1
Format settings                          : CABAC / 9 Ref Frames
Format settings, CABAC                   : Yes
Format settings, ReFrames                : 9 frames
Codec ID                                 : V_MPEG4/ISO/AVC
Duration                                 : 2 h 0 min
Bit rate                                 : 10 000 kb/s
Width                                    : 1 280 pixels
Height                                   : 720 pixels
Display aspect ratio                     : 16:9
Frame rate mode                          : Constant
Frame rate                               : 23.976 (24000/1001) FPS
Color space                              : YUV
Chroma subsampling                       : 4:2:0
Bit depth                                : 8 bits
Scan type                                : Progressive
Bits/(Pixel*Frame)                       : 0.453
Stream size                              : 8.38 GiB (87%)
Title                                    : Justice.League.2017.720p.BluRay.x264.DTS-HDC
Writing library                          : x264 core 148 r2665kMod a01e339
Encoding settings                        : cabac=1 / ref=9 / deblock=1:-3:-3 / analyse=0x3:0x133 / me=umh / subme=11 / psy=1 / fade_compensate=0.00 / psy_rd=1.05:0.00 / mixed_ref=1 / me_range=32 / chroma_me=1 / trellis=2 / 8x8dct=1 / cqm=0 / deadzone=21,11 / fast_pskip=0 / chroma_qp_offset=-2 / threads=22 / lookahead_threads=3 / sliced_threads=0 / nr=0 / decimate=0 / interlaced=0 / bluray_compat=0 / constrained_intra=0 / fgo=0 / bframes=8 / b_pyramid=2 / b_adapt=2 / b_bias=0 / direct=3 / weightb=1 / open_gop=0 / weightp=2 / keyint=240 / keyint_min=24 / scenecut=40 / intra_refresh=0 / rc=2pass / mbtree=0 / bitrate=10000 / ratetol=1.0 / qcomp=0.70 / qpmin=0 / qpmax=69 / qpstep=4 / cplxblur=20.0 / qblur=0.5 / ip_ratio=1.20 / pb_ratio=1.20 / aq=3:0.85
Default                                  : Yes
Forced                                   : No

Audio
ID                                       : 2
Format                                   : DTS
Format/Info                              : Digital Theater Systems
Codec ID                                 : A_DTS
Duration                                 : 2 h 0 min
Bit rate mode                            : Constant
Bit rate                                 : 1 509 kb/s
Channel(s)                               : 6 channels
Channel positions                        : Front: L C R, Side: L R, LFE
Sampling rate                            : 48.0 kHz
Frame rate                               : 93.750 FPS (512 SPF)
Bit depth                                : 24 bits
Compression mode                         : Lossy
Stream size                              : 1.27 GiB (13%)
Title                                    : Justice.League.2017.720p.BluRay.x264.DTS-HDC
Language                                 : English
Default                                  : Yes
Forced                                   : No

Text
ID                                       : 3
Format                                   : UTF-8
Codec ID                                 : S_TEXT/UTF8
Codec ID/Info                            : UTF-8 Plain Text
Duration                                 : 1 h 59 min
Bit rate                                 : 42 b/s
Count of elements                        : 1251
Stream size                              : 37.3 KiB (0%)
Language                                 : English
Default                                  : Yes
Forced                                   : No




Justice.League.2017.720p.BluRay.x264.DTS.torrent

97.07 KB, 下载次数: 64

QQ电影交流群: 498117193
您需要登录后才可以回帖 登录 | 注册

本版积分规则

BT探索

GMT+8, 2018-12-19 01:46

Powered by Discuz! X3.2

© 2001-2013 Comsenz Inc.

快速回复 返回顶部 返回列表