BT探索

 找回密码
 注册
搜索
查看: 313|回复: 0

[日韩] 海边的生与死.Life.and.Death.on.the.Shore.2017.720p.BluRay.x264.中文字幕.6.00GB

[复制链接]

3万

主题

4万

帖子

12万

影币

管理员

Rank: 8Rank: 8Rank: 8Rank: 8Rank: 8Rank: 8Rank: 8Rank: 8

积分
120834
注册时间
2010-9-1
最后登录
2018-6-18

Medal No.1Medal No.2Medal No.3Medal No.4Medal No.5Medal No.6Medal No.7Medal No.8Medal No.9Medal No.10

发表于 2018-2-28 12:52:41 | 显示全部楼层 |阅读模式
海报


导演: 越川道夫
编剧: 越川道夫 / 梯久美子 / 島尾敏雄
主演: 满岛光 / 永山绚斗 / 津嘉山正种 / 井之胁海 / 川濑阳太
类型: 剧情
官方网站: www.umibenoseitoshi.net
制片国家/地区: 日本
语言: 日语
上映日期: 2017-06-17(上海电影节) / 2017-07-29(日本)
片长: 155分钟
又名: Life and Death on the Shore
IMDb链接: tt6741160

海边的生与死的剧情简介 · · · · · ·
  1944年,二战末期,户枝是奄美群岛中一所国民学校的教师。岛上有海军特攻艇的驻守,而朔则是最近新调来的中尉。几次见面后,中尉深深被户枝所吸引,与此同时,用心学唱岛歌的中尉也让户枝有所沉醉。几番往来后,互有好感的二人终于坠入了爱河。然而,对中尉深深的爱却让户枝备受折磨,永无休止的战事使她的爱人随时处于被召唤出征的状态…… 本片根据小说家岛尾敏雄和其妻子岛尾美保执笔的《岛的尽头》与《海边的生与死》改编。

截图





Video
ID                                       : 1
Format                                   : AVC
Format/Info                              : Advanced Video Codec
Format profile                           : High@L4.1
Format settings                          : CABAC / 9 Ref Frames
Format settings, CABAC                   : Yes
Format settings, ReFrames                : 9 frames
Codec ID                                 : V_MPEG4/ISO/AVC
Duration                                 : 2 h 34 min
Bit rate                                 : 4 922 kb/s
Width                                    : 1 280 pixels
Height                                   : 692 pixels
Display aspect ratio                     : 1.85:1
Frame rate mode                          : Constant
Frame rate                               : 23.976 (24000/1001) FPS
Color space                              : YUV
Chroma subsampling                       : 4:2:0
Bit depth                                : 8 bits
Scan type                                : Progressive
Bits/(Pixel*Frame)                       : 0.232
Stream size                              : 5.30 GiB (88%)
Writing library                          : x264 core 129 r2245+704+36 8e61944 tMod+MixAQ [8-bit@4:2:0 X86_64]
Encoding settings                        : cabac=1 / ref=9 / deblock=1:-3:-3 / analyse=0x3:0x133 / me=umh / subme=11 / psy=1 / fade_compensate=0.00 / psy_rd=1.05:0.10 / mixed_ref=1 / me_range=32 / chroma_me=1 / trellis=2 / 8x8dct=1 / cqm=0 / deadzone=21,11 / fast_pskip=0 / chroma_qp_offset=-3 / threads=18 / lookahead_threads=3 / sliced_threads=0 / nr=0 / decimate=0 / interlaced=0 / bluray_compat=0 / constrained_intra=0 / fgo=0 / bframes=10 / b_pyramid=2 / b_adapt=2 / b_bias=0 / direct=3 / weightb=1 / open_gop=0 / weightp=2 / keyint=250 / keyint_min=23 / scenecut=40 / intra_refresh=0 / rc=2pass / mbtree=0 / bitrate=4922 / ratetol=1.0 / qcomp=0.70 / qpmin=0 / qpmax=69 / qpstep=4 / cplxblur=20.0 / qblur=0.5 / ip_ratio=1.40 / pb_ratio=1.30 / aq=1 / aq-strength=0.90 / aq-sensitivity=10.00 / aq-ifactor=1.00 / aq-pfactor=1.00 / aq-bfactor=1.00 / aq2=0
Language                                 : Japanese
Default                                  : Yes
Forced                                   : No

Audio
ID                                       : 2
Format                                   : AC-3
Format/Info                              : Audio Coding 3
Codec ID                                 : A_AC3
Duration                                 : 2 h 34 min
Bit rate mode                            : Constant
Bit rate                                 : 640 kb/s
Channel(s)                               : 6 channels
Channel positions                        : Front: L C R, Side: L R, LFE
Sampling rate                            : 48.0 kHz
Frame rate                               : 31.250 FPS (1536 SPF)
Bit depth                                : 16 bits
Compression mode                         : Lossy
Stream size                              : 706 MiB (11%)
Language                                 : Japanese
Service kind                             : Complete Main
Default                                  : Yes
Forced                                   : No

Text
ID                                       : 3
Format                                   : ASS
Codec ID                                 : S_TEXT/ASS
Codec ID/Info                            : Advanced Sub Station Alpha
Duration                                 : 2 h 30 min
Bit rate                                 : 38 b/s
Count of elements                        : 845
Compression mode                         : Lossless
Stream size                              : 42.8 KiB (0%)
Language                                 : Chinese
Default                                  : Yes
Forced                                   : No

Menu
00:00:00.000                             : en:00:00:00.000
00:10:57.323                             : en:00:10:57.323
00:23:20.107                             : en:00:23:20.107
00:34:52.215                             : en:00:34:52.215
00:45:46.410                             : en:00:45:46.410
00:54:50.537                             : en:00:54:50.537
01:09:40.718                             : en:01:09:40.718
01:21:20.250                             : en:01:21:20.250
01:36:29.950                             : en:01:36:29.950
01:45:30.574                             : en:01:45:30.574
01:55:05.857                             : en:01:55:05.857
02:06:08.852                             : en:02:06:08.852
02:18:56.453                             : en:02:18:56.453
02:30:06.247                             : en:02:30:06.247


海边的生与死.Life.and.Death.on.the.Shore.2017.720p.BluRay.x264.中文字幕.6.00GB.torrent

60.55 KB, 下载次数: 23

海边的生与死.Life.and.Death.on.the.Shore.2017.720p.BluRay.x264.中文字幕.6.00GB

电影交流QQ群: 498117193
您需要登录后才可以回帖 登录 | 注册

本版积分规则

小黑屋|手机版|BT探索

GMT+8, 2018-6-19 04:55

Powered by Discuz! X3.2

© 2001-2013 Comsenz Inc.

快速回复 返回顶部 返回列表