BT探索

 找回密码
 注册
搜索
查看: 372|回复: 1

[日韩] 鸟女.Tori.Girl.2017.720p.BluRay.x264-WiKi.日语中字.4.70 GB

[复制链接]

3万

主题

4万

帖子

12万

影币

管理员

Rank: 8Rank: 8Rank: 8Rank: 8Rank: 8Rank: 8Rank: 8Rank: 8

积分
120834
注册时间
2010-9-1
最后登录
2018-6-18

Medal No.1Medal No.2Medal No.3Medal No.4Medal No.5Medal No.6Medal No.7Medal No.8Medal No.9Medal No.10

发表于 2018-2-28 12:55:29 | 显示全部楼层 |阅读模式
海报


导演: 英勉
编剧: 高桥泉
主演: 土屋太凤 / 间宫祥太朗 / 高杉真宙 / 池田依来沙 / 矢本悠马
类型: 喜剧
官方网站: torigirl-movie.com
制片国家/地区: 日本
语言: 日语
上映日期: 2017-09-01(日本)
片长: 97分钟
又名: 鸟女孩
IMDb链接: tt5791094

鸟女的剧情简介
Toriyama Yukina is finally in at the university of her choice to major in science. She studied hard to get in. The school is not exactly as she had imagined however.
She has a crush on Kei and is motivated to join the man-flight club as a result| which competes in the contest of that same name. Obviously Yukina wants to buddy up
with Kei| alas it may not be happening.

截图




Video
ID                                       : 1
Format                                   : AVC
Format/Info                              : Advanced Video Codec
Format profile                           : High@L4.1
Format settings                          : CABAC / 9 Ref Frames
Format settings, CABAC                   : Yes
Format settings, ReFrames                : 9 frames
Codec ID                                 : V_MPEG4/ISO/AVC
Duration                                 : 1 h 37 min
Bit rate                                 : 6 234 kb/s
Width                                    : 1 280 pixels
Height                                   : 692 pixels
Display aspect ratio                     : 1.85:1
Frame rate mode                          : Constant
Frame rate                               : 23.976 (24000/1001) FPS
Color space                              : YUV
Chroma subsampling                       : 4:2:0
Bit depth                                : 8 bits
Scan type                                : Progressive
Bits/(Pixel*Frame)                       : 0.294
Stream size                              : 4.26 GiB (91%)
Writing library                          : x264 core 129 r2245+704+36 8e61944 tMod+MixAQ [8-bit@4:2:0 X86_64]
Encoding settings                        : cabac=1 / ref=9 / deblock=1:-3:-3 / analyse=0x3:0x133 / me=umh / subme=11 / psy=1 / fade_compensate=0.00 / psy_rd=1.05:0.10 / mixed_ref=1 / me_range=32 / chroma_me=1 / trellis=2 / 8x8dct=1 / cqm=0 / deadzone=21,11 / fast_pskip=0 / chroma_qp_offset=-3 / threads=18 / lookahead_threads=3 / sliced_threads=0 / nr=0 / decimate=0 / interlaced=0 / bluray_compat=0 / constrained_intra=0 / fgo=0 / bframes=10 / b_pyramid=2 / b_adapt=2 / b_bias=0 / direct=3 / weightb=1 / open_gop=0 / weightp=2 / keyint=250 / keyint_min=23 / scenecut=40 / intra_refresh=0 / rc=2pass / mbtree=0 / bitrate=6234 / ratetol=1.0 / qcomp=0.70 / qpmin=0 / qpmax=69 / qpstep=4 / cplxblur=20.0 / qblur=0.5 / ip_ratio=1.40 / pb_ratio=1.30 / aq=1 / aq-strength=0.90 / aq-sensitivity=10.00 / aq-ifactor=1.00 / aq-pfactor=1.00 / aq-bfactor=1.00 / aq2=0
Language                                 : Japanese
Default                                  : Yes
Forced                                   : No

Audio
ID                                       : 2
Format                                   : AC-3
Format/Info                              : Audio Coding 3
Codec ID                                 : A_AC3
Duration                                 : 1 h 37 min
Bit rate mode                            : Constant
Bit rate                                 : 640 kb/s
Channel(s)                               : 6 channels
Channel positions                        : Front: L C R, Side: L R, LFE
Sampling rate                            : 48.0 kHz
Frame rate                               : 31.250 FPS (1536 SPF)
Bit depth                                : 16 bits
Compression mode                         : Lossy
Stream size                              : 448 MiB (9%)
Language                                 : Japanese
Service kind                             : Complete Main
Default                                  : Yes
Forced                                   : No

Text
ID                                       : 3
Format                                   : ASS
Codec ID                                 : S_TEXT/ASS
Codec ID/Info                            : Advanced Sub Station Alpha
Duration                                 : 1 h 31 min
Bit rate                                 : 95 b/s
Count of elements                        : 1329
Compression mode                         : Lossless
Stream size                              : 64.3 KiB (0%)
Language                                 : Chinese
Default                                  : Yes
Forced                                   : No

Menu
00:00:00.000                             : en:00:00:00.000
00:17:32.718                             : en:00:17:32.718
00:28:06.726                             : en:00:28:06.726
00:41:01.876                             : en:00:41:01.876
00:52:51.668                             : en:00:52:51.668
01:04:56.225                             : en:01:04:56.225
01:12:54.995                             : en:01:12:54.995
01:24:56.591                             : en:01:24:56.591
01:37:44.024                             : en:01:37:44.024



鸟女.Tori.Girl.2017.720p.BluRay.x264-WiKi.日语中字.4.70 GB.torrent

94.58 KB, 下载次数: 47

鸟女.Tori.Girl.2017.720p.BluRay.x264-WiKi.日语中字.4.70 GB

电影交流QQ群: 498117193

0

主题

12

帖子

22

影币

观众

Rank: 1

积分
22
注册时间
2018-2-28
最后登录
2018-5-7
发表于 2018-3-1 10:15:47 | 显示全部楼层
好看的日本片 谢谢分享资源
电影交流QQ群: 498117193
您需要登录后才可以回帖 登录 | 注册

本版积分规则

小黑屋|手机版|BT探索

GMT+8, 2018-6-19 04:55

Powered by Discuz! X3.2

© 2001-2013 Comsenz Inc.

快速回复 返回顶部 返回列表