BT探索

 找回密码
 注册
查看: 339|回复: 0

[日韩] 浪矢解忧杂货店.2017.720p.BluRay.x264-WiKi.日语简繁中字.4.71 GB

[复制链接]

3万

主题

4万

帖子

13万

影币

管理员

Rank: 8Rank: 8Rank: 8Rank: 8Rank: 8Rank: 8Rank: 8Rank: 8

积分
133320
注册时间
2010-9-1
最后登录
2018-9-24

Medal No.1Medal No.2Medal No.3Medal No.4Medal No.5Medal No.6Medal No.7Medal No.8Medal No.9Medal No.10

发表于 2018-2-28 12:58:58 | 显示全部楼层 |阅读模式
海报


导演: 广木隆一
编剧: 齐藤浩史 / 东野圭吾
主演: 山田凉介 / 村上虹郎 / 宽一郎 / 成海璃子 / 门胁麦 / 林遣都 / 铃木梨央 / 山下莉绪 / 手塚通 / 中村治雄 / 萩原圣人 / 小林薰 / 吉行和子 / 尾野真千子 / 西田敏行
类型: 剧情
官方网站: namiya-movie.jp
制片国家/地区: 日本
语言: 日语
上映日期: 2018-02-02(中国大陆) / 2017-09-23(日本)
片长: 129分钟
又名: 解忧杂货店 / Miracles of the Namiya General Store
IMDb链接: tt6298600

浪矢解忧杂货店的剧情简介 · · · · · ·
  2012年的一个夜晚,自幼在某孤儿院长大的敦也(山田凉介 饰)、翔太(村上虹郎 饰)和幸平(宽一郎 饰)对某女企业家实施了抢劫,由于汽车意外抛锚,他们仓皇逃到了一家早已关张的杂货店内躲藏。这家名为浪矢杂货店的铺子此前由风趣和善的老人浪矢雄治(西田敏行 饰)经营,数十年前他出于玩笑帮小朋友们解答各种困扰,后来名气越来越大,以至于有人专程向他咨询人生中的难题。本来从1980年就该沉寂的店铺,却在三人闯进来后收到了烦恼咨询信。随后敦也等人发现,这些信件竟然来自遥远的过去。神秘的夜晚,迷途青年执笔为他人排忧解难,他们的命运和这家解忧杂货店紧紧联系在了一起……
  本片根据日本人气推理作家东野圭吾的同名原作改编。

截图




Video
ID                                       : 1
Format                                   : AVC
Format/Info                              : Advanced Video Codec
Format profile                           : High@L4.1
Format settings                          : CABAC / 12 Ref Frames
Format settings, CABAC                   : Yes
Format settings, ReFrames                : 12 frames
Codec ID                                 : V_MPEG4/ISO/AVC
Duration                                 : 2 h 9 min
Bit rate                                 : 4 540 kb/s
Width                                    : 1 280 pixels
Height                                   : 536 pixels
Display aspect ratio                     : 2.40:1
Frame rate mode                          : Constant
Frame rate                               : 23.976 (24000/1001) FPS
Color space                              : YUV
Chroma subsampling                       : 4:2:0
Bit depth                                : 8 bits
Scan type                                : Progressive
Bits/(Pixel*Frame)                       : 0.276
Stream size                              : 4.11 GiB (87%)
Writing library                          : x264 core 129 r2245+704+36 8e61944 tMod+MixAQ [8-bit@4:2:0 X86_64]
Encoding settings                        : cabac=1 / ref=12 / deblock=1:-3:-3 / analyse=0x3:0x133 / me=umh / subme=11 / psy=1 / fade_compensate=0.00 / psy_rd=1.05:0.10 / mixed_ref=1 / me_range=32 / chroma_me=1 / trellis=2 / 8x8dct=1 / cqm=0 / deadzone=21,11 / fast_pskip=0 / chroma_qp_offset=-3 / threads=18 / lookahead_threads=3 / sliced_threads=0 / nr=0 / decimate=0 / interlaced=0 / bluray_compat=0 / constrained_intra=0 / fgo=0 / bframes=10 / b_pyramid=2 / b_adapt=2 / b_bias=0 / direct=3 / weightb=1 / open_gop=0 / weightp=2 / keyint=250 / keyint_min=23 / scenecut=40 / intra_refresh=0 / rc=2pass / mbtree=0 / bitrate=4540 / ratetol=1.0 / qcomp=0.70 / qpmin=0 / qpmax=69 / qpstep=4 / cplxblur=20.0 / qblur=0.5 / ip_ratio=1.40 / pb_ratio=1.30 / aq=1 / aq-strength=0.90 / aq-sensitivity=10.00 / aq-ifactor=1.00 / aq-pfactor=1.00 / aq-bfactor=1.00 / aq2=0
Language                                 : Japanese
Default                                  : Yes
Forced                                   : No

Audio
ID                                       : 2
Format                                   : AC-3
Format/Info                              : Audio Coding 3
Codec ID                                 : A_AC3
Duration                                 : 2 h 9 min
Bit rate mode                            : Constant
Bit rate                                 : 640 kb/s
Channel(s)                               : 6 channels
Channel positions                        : Front: L C R, Side: L R, LFE
Sampling rate                            : 48.0 kHz
Frame rate                               : 31.250 FPS (1536 SPF)
Bit depth                                : 16 bits
Compression mode                         : Lossy
Stream size                              : 593 MiB (12%)
Language                                 : Japanese
Service kind                             : Complete Main
Default                                  : Yes
Forced                                   : No

Text #1
ID                                       : 3
Format                                   : ASS
Codec ID                                 : S_TEXT/ASS
Codec ID/Info                            : Advanced Sub Station Alpha
Duration                                 : 2 h 7 min
Bit rate                                 : 56 b/s
Count of elements                        : 1227
Compression mode                         : Lossless
Stream size                              : 52.5 KiB (0%)
Title                                    : Simplified
Language                                 : Chinese
Default                                  : Yes
Forced                                   : No

Text #2
ID                                       : 4
Format                                   : ASS
Codec ID                                 : S_TEXT/ASS
Codec ID/Info                            : Advanced Sub Station Alpha
Duration                                 : 2 h 7 min
Bit rate                                 : 56 b/s
Count of elements                        : 1227
Compression mode                         : Lossless
Stream size                              : 52.5 KiB (0%)
Title                                    : Traditional
Language                                 : Chinese
Default                                  : No
Forced                                   : No

Menu
00:00:00.000                             : en:00:00:00.000
00:03:01.806                             : en:00:03:01.806
00:13:48.452                             : en:00:13:48.452
00:33:28.673                             : en:00:33:28.673
00:44:45.015                             : en:00:44:45.015
00:51:10.233                             : en:00:51:10.233
01:02:26.033                             : en:01:02:26.033
01:25:30.166                             : en:01:25:30.166
01:36:50.721                             : en:01:36:50.721
01:42:25.305                             : en:01:42:25.305
01:50:40.133                             : en:01:50:40.133
01:57:21.576                             : en:01:57:21.576
02:09:36.769                             : en:02:09:36.769


浪矢解忧杂货店.2017.720p.BluRay.x264-WiKi.日语简繁中字.4.71 GB.torrent

94.8 KB, 下载次数: 45

浪矢解忧杂货店.2017.720p.BluRay.x264-WiKi.日语简繁中字.4.71 GB

QQ电影交流群: 498117193
您需要登录后才可以回帖 登录 | 注册

本版积分规则

BT探索

GMT+8, 2018-9-24 18:21

Powered by Discuz! X3.2

© 2001-2013 Comsenz Inc.

快速回复 返回顶部 返回列表