BT探索

 找回密码
 注册
查看: 486|回复: 0

[华语] 抢红.Wine.War.2017.720p.BluRay.x264-WiKi.国语简繁中字.4.37 GB

[复制链接]

3万

主题

4万

帖子

13万

影币

管理员

Rank: 8Rank: 8Rank: 8Rank: 8Rank: 8Rank: 8Rank: 8Rank: 8

积分
133570
注册时间
2010-9-1
最后登录
2018-9-25

Medal No.1Medal No.2Medal No.3Medal No.4Medal No.5Medal No.6Medal No.7Medal No.8Medal No.9Medal No.10

发表于 2018-3-2 14:07:06 | 显示全部楼层 |阅读模式
海报


导演: 黎明
编剧: 熊山君 / 毕成功 / 黎明
主演: 张涵予 / 黎明 / 王耀庆 / 杜鹃 / 南伏龙 / 黄尚禾 / 吉丽 / 苍井空
类型: 动作 / 犯罪
制片国家/地区: 中国大陆
语言: 汉语普通话
上映日期: 2017-05-19(中国大陆)
片长: 90分钟
又名: Z计划 / Wine War
IMDb链接: tt3699104

抢红的剧情简介 · · · · · ·
  朝不保夕的司机张水(张涵予 饰),受上司方长方(王耀庆 饰)利诱,答应亲赴法国邀请义弟韦力(黎明 饰)帮忙参加天价红酒的竞拍。张水谎称为国家执行秘密任务骗得韦力的信任,一同前往品酒大会。拍卖现场,张水意外的发现指使自己来参加拍卖会的老板方长方也在现场,而此时的方长方好像从没认识过张水...品酒会的主持者利芳(杜鹃 饰)与各路买家逐一品酒,只有通过考验的人才可以参与到竞拍环节。
  利芳同父异母的哥哥LK此时在众人之外静静的看着所发生的一切,谁也想不到,拍卖会的真正目的根本不是卖酒……

截图






Video
ID                                       : 1
Format                                   : AVC
Format/Info                              : Advanced Video Codec
Format profile                           : High@L4.1
Format settings                          : CABAC / 12 Ref Frames
Format settings, CABAC                   : Yes
Format settings, ReFrames                : 12 frames
Codec ID                                 : V_MPEG4/ISO/AVC
Duration                                 : 1 h 30 min
Bit rate                                 : 6 312 kb/s
Width                                    : 1 280 pixels
Height                                   : 536 pixels
Display aspect ratio                     : 2.40:1
Frame rate mode                          : Constant
Frame rate                               : 24.000 FPS
Color space                              : YUV
Chroma subsampling                       : 4:2:0
Bit depth                                : 8 bits
Scan type                                : Progressive
Bits/(Pixel*Frame)                       : 0.383
Stream size                              : 3.96 GiB (91%)
Writing library                          : x264 core 129 r2245 bc13772
Encoding settings                        : cabac=1 / ref=12 / deblock=1:-3:-3 / analyse=0x3:0x133 / me=umh / subme=11 / psy=1 / psy_rd=1.05:0.05 / mixed_ref=1 / me_range=32 / chroma_me=1 / trellis=2 / 8x8dct=1 / cqm=0 / deadzone=21,11 / fast_pskip=0 / chroma_qp_offset=-3 / threads=12 / lookahead_threads=2 / sliced_threads=0 / nr=0 / decimate=1 / interlaced=0 / bluray_compat=0 / constrained_intra=0 / bframes=8 / b_pyramid=2 / b_adapt=2 / b_bias=0 / direct=3 / weightb=1 / open_gop=0 / weightp=2 / keyint=250 / keyint_min=24 / scenecut=40 / intra_refresh=0 / rc_lookahead=60 / rc=2pass / mbtree=1 / bitrate=6312 / ratetol=1.0 / qcomp=0.60 / qpmin=0 / qpmax=69 / qpstep=4 / cplxblur=20.0 / qblur=0.5 / ip_ratio=1.40 / aq=1:0.85
Language                                 : English
Default                                  : Yes
Forced                                   : No

Audio
ID                                       : 2
Format                                   : AC-3
Format/Info                              : Audio Coding 3
Codec ID                                 : A_AC3
Duration                                 : 1 h 30 min
Bit rate mode                            : Constant
Bit rate                                 : 640 kb/s
Channel(s)                               : 6 channels
Channel positions                        : Front: L C R, Side: L R, LFE
Sampling rate                            : 48.0 kHz
Frame rate                               : 31.250 FPS (1536 SPF)
Bit depth                                : 16 bits
Compression mode                         : Lossy
Stream size                              : 412 MiB (9%)
Language                                 : Chinese
Service kind                             : Complete Main
Default                                  : Yes
Forced                                   : No

Text #1
ID                                       : 3
Format                                   : UTF-8
Codec ID                                 : S_TEXT/UTF8
Codec ID/Info                            : UTF-8 Plain Text
Duration                                 : 1 h 18 min
Bit rate                                 : 49 b/s
Count of elements                        : 1255
Stream size                              : 28.6 KiB (0%)
Title                                    : 简体
Language                                 : Chinese
Default                                  : Yes
Forced                                   : No

Text #2
ID                                       : 4
Format                                   : UTF-8
Codec ID                                 : S_TEXT/UTF8
Codec ID/Info                            : UTF-8 Plain Text
Duration                                 : 1 h 18 min
Bit rate                                 : 49 b/s
Count of elements                        : 1255
Stream size                              : 28.6 KiB (0%)
Title                                    : 繁体
Language                                 : Chinese
Default                                  : No
Forced                                   : No



抢红.Wine.War.2017.720p.BluRay.x264-WiKi.国语简繁中字.4.37 GB.torrent

87.85 KB, 下载次数: 88

抢红.Wine.War.2017.720p.BluRay.x264-WiKi.国语简繁中字.4.37 GB

QQ电影交流群: 498117193
您需要登录后才可以回帖 登录 | 注册

本版积分规则

BT探索

GMT+8, 2018-9-25 18:40

Powered by Discuz! X3.2

© 2001-2013 Comsenz Inc.

快速回复 返回顶部 返回列表