BT探索

 找回密码
 注册
查看: 415|回复: 0

[4K] 寻梦环游记.Coco.2017.2160p.BluRay.x265.10bit.HDR.TrueHD.7.1.Atmos.14.29 GB

[复制链接]

3万

主题

4万

帖子

14万

影币

管理员

Rank: 8Rank: 8Rank: 8Rank: 8Rank: 8Rank: 8Rank: 8Rank: 8

积分
144748
注册时间
2010-9-1
最后登录
2018-12-18

Medal No.1Medal No.2Medal No.3Medal No.4Medal No.5Medal No.6Medal No.7Medal No.8Medal No.9Medal No.10

发表于 2018-3-3 09:07:00 | 显示全部楼层 |阅读模式
海报


导演: 李·昂克里奇 / 阿德里安·莫利纳
编剧: 阿德里安·莫利纳 / 马修·奥尔德里奇 / 李·昂克里奇 / 詹森·卡茨
主演: 安东尼·冈萨雷斯 / 盖尔·加西亚·贝纳尔 / 本杰明·布拉特 / 阿兰纳·乌巴奇 / 芮妮·维克托 / 杰米·卡米尔 / 阿方索·阿雷奥 / 赫伯特·西古恩萨 / 加布里埃尔·伊格莱西亚斯 / 隆巴多·博伊尔 / 安娜·奥菲丽亚·莫吉亚 / 娜塔丽·科尔多瓦 / 赛琳娜·露娜 / 爱德华·詹姆斯·奥莫斯 / 索菲亚·伊斯皮诺萨 / 卡拉·梅迪纳 / 黛娅娜·欧特里 / 路易斯·瓦尔德斯 / 布兰卡·阿拉切利 / 萨尔瓦多·雷耶斯 / 切奇·马林 / 奥克塔维·索利斯 / 约翰·拉岑贝格
类型: 喜剧 / 动画 / 音乐 / 家庭 / 冒险
制片国家/地区: 美国
语言: 英语 / 西班牙语
上映日期: 2017-11-24(中国大陆) / 2017-10-20(莫雷利亚电影节) / 2017-11-22(美国)
片长: 105分钟
又名: 可可夜总会(台) / 玩转极乐园(港) / 亡灵总动员(豆友译名) / 祖宗总动员(豆友译名) / 墨西哥亡灵节 / 可可
IMDb链接: tt2380307

寻梦环游记的剧情简介 · · · · · ·
  热爱音乐的米格尔(安东尼·冈萨雷兹 Anthony Gonzalez 配音)不幸地出生在一个视音乐为洪水猛兽的大家庭之中,一家人只盼着米格尔快快长大,好继承家里传承了数代的制鞋产业。一年一度的亡灵节即将来临,每逢这一天,去世的亲人们的魂魄便可凭借着摆在祭坛上的照片返回现世和生者团圆。
  在一场意外中,米格尔竟然穿越到了亡灵国度之中,在太阳升起之前,他必须得到一位亲人的祝福,否则就将会永远地留在这个世界里。米格尔决定去寻找已故的歌神德拉库斯(本杰明·布拉特 Benjamin Bratt 配音),因为他很有可能就是自己的祖父。途中,米格尔邂逅了落魄乐手埃克托(盖尔·加西亚·贝纳尔 Gael García Bernal 配音),也渐渐发现了德拉库斯隐藏已久的秘密。

寻梦环游记的获奖情况
第90届奥斯卡金像奖 最佳动画长片(提名) 达拉·K·安德森 / 李·昂克里奇
第75届金球奖 电影类 最佳动画长片
第71届英国电影学院奖 电影奖 最佳动画片

截图





Video
ID                                       : 1
Format                                   : HEVC
Format/Info                              : High Efficiency Video Coding
Format profile                           : Main 10@L5.1@High
Codec ID                                 : V_MPEGH/ISO/HEVC
Duration                                 : 1 h 45 min
Bit rate                                 : 12.0 Mb/s
Width                                    : 3 840 pixels
Height                                   : 1 608 pixels
Display aspect ratio                     : 2.40:1
Frame rate mode                          : Constant
Frame rate                               : 23.976 (24000/1001) FPS
Color space                              : YUV
Chroma subsampling                       : 4:2:0 (Type 2)
Bit depth                                : 10 bits
Bits/(Pixel*Frame)                       : 0.081
Stream size                              : 8.78 GiB (63%)
Writing library                          : x265 2.6+49-7219376de42a:[Windows][GCC 6.3.0][64 bit] 10bit
Encoding settings                        : cpuid=1173503 / frame-threads=4 / numa-pools=16 / wpp / no-pmode / no-pme / no-psnr / no-ssim / log-level=2 / input-csp=1 / input-res=3840x1608 / interlace=0 / total-frames=151097 / level-idc=51 / high-tier=1 / uhd-bd=0 / ref=4 / no-allow-non-conformance / repeat-headers / annexb / aud / hrd / info / hash=0 / no-temporal-layers / no-open-gop / min-keyint=1 / keyint=24 / gop-lookahead=0 / bframes=4 / b-adapt=2 / b-pyramid / bframe-bias=0 / rc-lookahead=25 / lookahead-slices=4 / scenecut=40 / radl=0 / no-intra-refresh / ctu=64 / min-cu-size=8 / rect / no-amp / max-tu-size=32 / tu-inter-depth=1 / tu-intra-depth=1 / limit-tu=0 / rdoq-level=2 / dynamic-rd=0.00 / no-ssim-rd / signhide / no-tskip / nr-intra=0 / nr-inter=0 / no-constrained-intra / no-strong-intra-smoothing / max-merge=3 / limit-refs=3 / limit-modes / me=3 / subme=3 / merange=57 / temporal-mvp / weightp / no-weightb / no-analyze-src-pics / deblock=-3:-3 / no-sao / no-sao-non-deblock / rd=4 / no-early-skip / rskip / no-fast-intra / no-tskip-fast / no-cu-lossless / no-b-intra / no-splitrd-skip / rdpenalty=0 / psy-rd=2.00 / psy-rdoq=1.00 / no-rd-refine / no-lossless / cbqpoffs=0 / crqpoffs=0 / rc=crf / crf=17.0 / qcomp=0.60 / qpstep=4 / stats-write=0 / stats-read=0 / vbv-maxrate=160000 / vbv-bufsize=160000 / vbv-init=0.9 / crf-max=0.0 / crf-min=0.0 / ipratio=1.40 / pbratio=1.30 / aq-mode=1 / aq-strength=1.00 / cutree / zone-count=0 / no-strict-cbr / qg-size=32 / no-rc-grain / qpmax=69 / qpmin=0 / no-const-vbv / sar=1 / overscan=0 / videoformat=5 / range=0 / colorprim=9 / transfer=16 / colormatrix=9 / chromaloc=1 / chromaloc-top=2 / chromaloc-bottom=2 / display-window=0 / master-display=G(13250,34500)B(7500,3000)R(34000,16000)WP(15635,16450)L(10000000,0) / max-cll=0,0 / min-luma=0 / max-luma=1023 / log2-max-poc-lsb=8 / vui-timing-info / vui-hrd-info / slices=1 / no-opt-qp-pps / no-opt-ref-list-length-pps / no-multi-pass-opt-rps / scenecut-bias=0.05 / no-opt-cu-delta-qp / no-aq-motion / hdr / hdr-opt / no-dhdr10-opt / analysis-reuse-level=5 / scale-factor=0 / refine-intra=0 / refine-inter=0 / refine-mv=0 / no-limit-sao / ctu-info=0 / no-lowpass-dct / refine-mv-type=0 / copy-pic=1
Default                                  : Yes
Forced                                   : No
Color range                              : Limited
Color primaries                          : BT.2020
Transfer characteristics                 : PQ
Matrix coefficients                      : BT.2020 non-constant
Mastering display color primaries        : Display P3
Mastering display luminance              : min: 0.0000 cd/m2, max: 1000 cd/m2

Audio #1
ID                                       : 2
Format                                   : TrueHD
Format profile                           : TrueHD+Atmos / TrueHD
Codec ID                                 : A_TRUEHD
Duration                                 : 1 h 45 min
Bit rate mode                            : Variable
Bit rate                                 : 6 434 kb/s
Maximum bit rate                         : 8 217 kb/s
Channel(s)                               : Object Based / 8 channels
Channel positions                        : Object Based / Front: L C R, Side: L R, Back: L R, LFE
Sampling rate                            :  / 48.0 kHz
Frame rate                               : 1 200.000 FPS (40 SPF)
Compression mode                         : Lossless
Stream size                              : 4.72 GiB (34%)
Language                                 : English
Default                                  : Yes
Forced                                   : No

Audio #2
ID                                       : 3
Format                                   : AC-3
Format/Info                              : Audio Coding 3
Codec ID                                 : A_AC3
Duration                                 : 1 h 45 min
Bit rate mode                            : Constant
Bit rate                                 : 640 kb/s
Channel(s)                               : 6 channels
Channel positions                        : Front: L C R, Side: L R, LFE
Sampling rate                            : 48.0 kHz
Frame rate                               : 31.250 FPS (1536 SPF)
Bit depth                                : 16 bits
Compression mode                         : Lossy
Stream size                              : 481 MiB (3%)
Service kind                             : Complete Main
Default                                  : No
Forced                                   : No

Text #1
ID                                       : 4
Format                                   : PGS
Muxing mode                              : zlib
Codec ID                                 : S_HDMV/PGS
Codec ID/Info                            : Picture based subtitle format used on BDs/HD-DVDs
Duration                                 : 1 h 44 min
Bit rate                                 : 44.8 kb/s
Count of elements                        : 3426
Stream size                              : 33.4 MiB (0%)
Language                                 : English
Default                                  : No
Forced                                   : No

Text #2
ID                                       : 5
Format                                   : PGS
Muxing mode                              : zlib
Codec ID                                 : S_HDMV/PGS
Codec ID/Info                            : Picture based subtitle format used on BDs/HD-DVDs
Duration                                 : 1 h 44 min
Bit rate                                 : 36.8 kb/s
Count of elements                        : 2366
Stream size                              : 27.5 MiB (0%)
Language                                 : French
Default                                  : No
Forced                                   : No

Text #3
ID                                       : 6
Format                                   : PGS
Muxing mode                              : zlib
Codec ID                                 : S_HDMV/PGS
Codec ID/Info                            : Picture based subtitle format used on BDs/HD-DVDs
Duration                                 : 1 h 44 min
Bit rate                                 : 34.9 kb/s
Count of elements                        : 2242
Stream size                              : 26.0 MiB (0%)
Language                                 : Spanish
Default                                  : No
Forced                                   : No

Menu
00:00:00.000                             : en:00:00:00.000
00:06:40.191                             : en:00:06:40.191
00:08:41.521                             : en:00:08:41.521
00:11:13.589                             : en:00:11:13.589
00:14:20.318                             : en:00:14:20.318
00:17:06.942                             : en:00:17:06.942
00:18:20.933                             : en:00:18:20.933
00:22:05.991                             : en:00:22:05.991
00:24:19.958                             : en:00:24:19.958
00:27:44.830                             : en:00:27:44.830
00:29:07.913                             : en:00:29:07.913
00:32:15.308                             : en:00:32:15.308
00:35:18.408                             : en:00:35:18.408
00:41:25.524                             : en:00:41:25.524
00:47:04.696                             : en:00:47:04.696
00:50:54.176                             : en:00:50:54.176
00:54:23.885                             : en:00:54:23.885
00:56:45.026                             : en:00:56:45.026
01:01:42.615                             : en:01:01:42.615
01:03:28.137                             : en:01:03:28.137
01:08:58.217                             : en:01:08:58.217
01:15:17.262                             : en:01:15:17.262
01:18:56.773                             : en:01:18:56.773
01:21:31.761                             : en:01:21:31.761
01:24:31.816                             : en:01:24:31.816
01:28:23.464                             : en:01:28:23.464
01:33:14.755                             : en:01:33:14.755
01:36:10.472                             : en:01:36:10.472

Coco.2017.2160p.BluRay.x265.10bit.HDR.TrueHD.7.1.Atmos.torrent

72.04 KB, 下载次数: 27

QQ电影交流群: 498117193
您需要登录后才可以回帖 登录 | 注册

本版积分规则

BT探索

GMT+8, 2018-12-19 02:00

Powered by Discuz! X3.2

© 2001-2013 Comsenz Inc.

快速回复 返回顶部 返回列表