BT探索

 找回密码
 注册
查看: 237|回复: 0

[REMUX] 帕丁顿熊2.2017.1080p.BluRay.REMUX.AVC.DTS-HD.MA.TrueHD.7.1.Atmos.31.63 GB

[复制链接]

3万

主题

4万

帖子

14万

影币

管理员

Rank: 8Rank: 8Rank: 8Rank: 8Rank: 8Rank: 8Rank: 8Rank: 8

积分
144748
注册时间
2010-9-1
最后登录
2018-12-18

Medal No.1Medal No.2Medal No.3Medal No.4Medal No.5Medal No.6Medal No.7Medal No.8Medal No.9Medal No.10

发表于 2018-3-9 12:06:25 | 显示全部楼层 |阅读模式
海报


导演: 保罗·金
编剧: 保罗·金 / 迈克尔·邦德 / 西蒙·法纳比
主演: 本·卫肖 / 休·格兰特 / 休·博纳维尔 / 莎莉·霍金斯 / 萨缪尔·乔斯林 / 马德琳·哈里斯 / 朱丽·沃特斯 / 布莱丹·格里森 / 吉姆·布劳德本特 / 艾美达·斯丹顿 / 彼得·卡帕尔迪 / 艾琳·阿特金斯 / 汤姆·康蒂 / 本·米勒 / 诺亚·泰勒 / 理查德·艾欧阿德
类型: 喜剧 / 动画 / 家庭
官方网站: paddington.com/global/home
制片国家/地区: 英国 / 法国 / 美国
语言: 英语
上映日期: 2017-12-08(中国大陆) / 2017-11-10(英国)
片长: 103分钟
又名: 柏灵顿2(港) / 柏灵顿熊熊出任务(台)
IMDb链接: tt4468740

帕丁顿熊2的剧情简介 · · · · · ·
  露西婶婶(伊梅尔达·斯汤顿 Imelda Staunton 配音)的生日即将到来,帕丁顿(本·威士肖 Ben Whishaw 配音)决定送婶婶一份会让她终生难忘的礼物。最终,帕丁顿选中了一本立体绘本,然而这绘本是世间仅此一份的珍贵宝物,为了存钱购买绘本,帕丁顿决定开始工作,在遭遇了一连串的失败后,帕丁顿终于找到了适合他的工作——清洁玻璃窗。
  就在帕丁顿的存款即将达标之际,绘本竟然被一名神出鬼没的小偷给偷走了,同时出现在案发现场的帕丁顿被当做嫌疑犯捉拿归案,并最终被关进了监狱。在监狱里,帕丁顿凭借着自己的爱与勇气改变了墙内死气沉沉的氛围,监狱外,布朗一家人亦从来没有放弃过替帕丁顿洗清冤屈的机会。

帕丁顿熊2的获奖情况
第71届英国电影学院奖 电影奖 最佳英国影片(提名)
第71届英国电影学院奖 电影奖 最佳男配角(提名) 休·格兰特

截图




Video
ID                                       : 1
Format                                   : AVC
Format/Info                              : Advanced Video Codec
Format profile                           : High@L4.1
Format settings                          : CABAC / 4 Ref Frames
Format settings, CABAC                   : Yes
Format settings, ReFrames                : 4 frames
Codec ID                                 : V_MPEG4/ISO/AVC
Duration                                 : 1 h 43 min
Bit rate mode                            : Variable
Bit rate                                 : 27.9 Mb/s
Maximum bit rate                         : 30.0 Mb/s
Width                                    : 1 920 pixels
Height                                   : 1 080 pixels
Display aspect ratio                     : 16:9
Frame rate mode                          : Constant
Frame rate                               : 24.000 FPS
Color space                              : YUV
Chroma subsampling                       : 4:2:0
Bit depth                                : 8 bits
Scan type                                : Progressive
Bits/(Pixel*Frame)                       : 0.560
Stream size                              : 20.1 GiB (64%)
Title                                    : Paddington.2.2017.1080p.BluRay.REMUX.AVC.DTS-HD.MA.TrueHD.7.1.Atmos-FGT
Language                                 : English
Default                                  : No
Forced                                   : No

Audio #1
ID                                       : 2
Format                                   : TrueHD
Format profile                           : TrueHD+Atmos / TrueHD
Codec ID                                 : A_TRUEHD
Duration                                 : 1 h 43 min
Bit rate mode                            : Variable
Bit rate                                 : 4 120 kb/s
Maximum bit rate                         : 7 269 kb/s
Channel(s)                               : Object Based / 8 channels
Channel positions                        : Object Based / Front: L C R, Side: L R, Back: L R, LFE
Sampling rate                            :  / 48.0 kHz
Frame rate                               : 1 200.000 FPS (40 SPF)
Compression mode                         : Lossless
Stream size                              : 2.97 GiB (9%)
Title                                    : Paddington.2.2017.1080p.BluRay.REMUX.AVC.DTS-HD.MA.TrueHD.7.1.Atmos-FGT
Language                                 : English
Default                                  : Yes
Forced                                   : No

Audio #2
ID                                       : 3
Format                                   : DTS
Format/Info                              : Digital Theater Systems
Format profile                           : MA / Core
Codec ID                                 : A_DTS
Duration                                 : 1 h 43 min
Bit rate mode                            : Variable / Constant
Bit rate                                 : 3 959 kb/s / 1 509 kb/s
Channel(s)                               : 8 channels / 6 channels
Channel positions                        : Front: L C R, Side: L R, Back: L R, LFE / Front: L C R, Side: L R, LFE
Sampling rate                            : 48.0 kHz
Frame rate                               : 93.750 FPS (512 SPF)
Bit depth                                : 24 bits
Compression mode                         : Lossless / Lossy
Stream size                              : 2.86 GiB (9%)
Title                                    : Paddington.2.2017.1080p.BluRay.REMUX.AVC.DTS-HD.MA.TrueHD.7.1.Atmos-FGT
Language                                 : English
Default                                  : No
Forced                                   : No

Audio #3
ID                                       : 4
Format                                   : AC-3
Format/Info                              : Audio Coding 3
Codec ID                                 : A_AC3
Duration                                 : 1 h 43 min
Bit rate mode                            : Constant
Bit rate                                 : 640 kb/s
Channel(s)                               : 6 channels
Channel positions                        : Front: L C R, Side: L R, LFE
Sampling rate                            : 48.0 kHz
Frame rate                               : 31.250 FPS (1536 SPF)
Bit depth                                : 16 bits
Compression mode                         : Lossy
Stream size                              : 473 MiB (1%)
Title                                    : Paddington.2.2017.1080p.BluRay.REMUX.AVC.DTS-HD.MA.TrueHD.7.1.Atmos-FGT
Language                                 : English
Service kind                             : Complete Main
Default                                  : No
Forced                                   : No

Audio #4
ID                                       : 5
Format                                   : DTS
Format/Info                              : Digital Theater Systems
Format profile                           : MA / Core
Codec ID                                 : A_DTS
Duration                                 : 1 h 43 min
Bit rate mode                            : Variable / Constant
Bit rate                                 : 2 212 kb/s / 1 509 kb/s
Channel(s)                               : 6 channels
Channel positions                        : Front: L C R, Side: L R, LFE
Sampling rate                            : 48.0 kHz
Frame rate                               : 93.750 FPS (512 SPF)
Bit depth                                : 16 bits
Compression mode                         : Lossless / Lossy
Stream size                              : 1.60 GiB (5%)
Title                                    : Paddington.2.2017.1080p.BluRay.REMUX.AVC.DTS-HD.MA.TrueHD.7.1.Atmos-FGT
Language                                 : English
Default                                  : No
Forced                                   : No

Audio #5
ID                                       : 6
Format                                   : DTS
Format/Info                              : Digital Theater Systems
Codec ID                                 : A_DTS
Duration                                 : 1 h 43 min
Bit rate mode                            : Constant
Bit rate                                 : 1 509 kb/s
Channel(s)                               : 6 channels
Channel positions                        : Front: L C R, Side: L R, LFE
Sampling rate                            : 48.0 kHz
Frame rate                               : 93.750 FPS (512 SPF)
Bit depth                                : 16 bits
Compression mode                         : Lossy
Stream size                              : 1.09 GiB (3%)
Title                                    : Paddington.2.2017.1080p.BluRay.REMUX.AVC.DTS-HD.MA.TrueHD.7.1.Atmos-FGT
Language                                 : English
Default                                  : No
Forced                                   : No

Audio #6
ID                                       : 7
Format                                   : DTS
Format/Info                              : Digital Theater Systems
Format profile                           : MA / Core
Codec ID                                 : A_DTS
Duration                                 : 1 h 43 min
Bit rate mode                            : Variable / Constant
Bit rate                                 : 1 734 kb/s / 1 509 kb/s
Channel(s)                               : 2 channels
Channel positions                        : Front: L R
Sampling rate                            : 48.0 kHz
Frame rate                               : 93.750 FPS (512 SPF)
Bit depth                                : 16 bits
Compression mode                         : Lossless / Lossy
Stream size                              : 1.25 GiB (4%)
Title                                    : Paddington.2.2017.1080p.BluRay.REMUX.AVC.DTS-HD.MA.TrueHD.7.1.Atmos-FGT
Language                                 : English
Default                                  : No
Forced                                   : No

Audio #7
ID                                       : 8
Format                                   : DTS
Format/Info                              : Digital Theater Systems
Codec ID                                 : A_DTS
Duration                                 : 1 h 43 min
Bit rate mode                            : Constant
Bit rate                                 : 1 509 kb/s
Channel(s)                               : 2 channels
Channel positions                        : Front: L R
Sampling rate                            : 48.0 kHz
Frame rate                               : 93.750 FPS (512 SPF)
Bit depth                                : 16 bits
Compression mode                         : Lossy
Stream size                              : 1.09 GiB (3%)
Title                                    : Paddington.2.2017.1080p.BluRay.REMUX.AVC.DTS-HD.MA.TrueHD.7.1.Atmos-FGT
Language                                 : English
Default                                  : No
Forced                                   : No

Audio #8
ID                                       : 9
Format                                   : AC-3
Format/Info                              : Audio Coding 3
Codec ID                                 : A_AC3
Duration                                 : 1 h 43 min
Bit rate mode                            : Constant
Bit rate                                 : 192 kb/s
Channel(s)                               : 2 channels
Channel positions                        : Front: L R
Sampling rate                            : 48.0 kHz
Frame rate                               : 31.250 FPS (1536 SPF)
Bit depth                                : 16 bits
Compression mode                         : Lossy
Stream size                              : 142 MiB (0%)
Title                                    : Paddington.2.2017.1080p.BluRay.REMUX.AVC.DTS-HD.MA.TrueHD.7.1.Atmos-FGT
Language                                 : English
Service kind                             : Complete Main
Default                                  : No
Forced                                   : No

Text
ID                                       : 10
Format                                   : PGS
Muxing mode                              : zlib
Codec ID                                 : S_HDMV/PGS
Codec ID/Info                            : Picture based subtitle format used on BDs/HD-DVDs
Duration                                 : 1 h 39 min
Bit rate                                 : 58.7 kb/s
Count of elements                        : 3646
Stream size                              : 41.7 MiB (0%)
Title                                    : English-PGS
Language                                 : English
Default                                  : Yes
Forced                                   : No

Menu
00:00:00.000                             : en:Chapter 01
00:08:08.500                             : en:Chapter 02
00:18:48.541                             : en:Chapter 03
00:27:05.958                             : en:Chapter 04
00:38:47.333                             : en:Chapter 05
00:47:46.875                             : en:Chapter 06
00:55:53.666                             : en:Chapter 07
01:02:17.458                             : en:Chapter 08
01:09:31.833                             : en:Chapter 09
01:16:39.000                             : en:Chapter 10
01:24:13.208                             : en:Chapter 11
01:33:50.208                             : en:Chapter 12

Paddington.2.2017.1080p.BluRay.REMUX.AVC.DTS-HD.MA.TrueHD.7.1.Atmos.torrent

79.64 KB, 下载次数: 19

QQ电影交流群: 498117193
您需要登录后才可以回帖 登录 | 注册

本版积分规则

BT探索

GMT+8, 2018-12-19 01:48

Powered by Discuz! X3.2

© 2001-2013 Comsenz Inc.

快速回复 返回顶部 返回列表