BT探索

 找回密码
 注册
查看: 189|回复: 1

[欧美] 惊声尖笑.Scary.Movie.2000.1080p.BluRay.x264-SUNSPOT.7.95 GB

[复制链接]

3万

主题

4万

帖子

13万

影币

管理员

Rank: 8Rank: 8Rank: 8Rank: 8Rank: 8Rank: 8Rank: 8Rank: 8

积分
133320
注册时间
2010-9-1
最后登录
2018-9-24

Medal No.1Medal No.2Medal No.3Medal No.4Medal No.5Medal No.6Medal No.7Medal No.8Medal No.9Medal No.10

发表于 2018-3-11 10:09:54 | 显示全部楼层 |阅读模式
海报


导演: 基伦·埃弗瑞·韦恩斯
编剧: 肖恩·韦恩斯 / 马龙·韦恩斯
主演: 安娜·法瑞丝 / 乔·阿布拉汉姆斯 / 马龙·韦恩斯 / 戴夫·谢里登 / 莎诺·伊丽莎白 / 洛奇林·莫罗 / 肖恩·韦恩斯 / 雷吉娜·赫尔 / 卡门·伊莱克特拉
类型: 喜剧
制片国家/地区: 美国
语言: 英语
上映日期: 2000-07-07
片长: 88 分钟
又名: 恐怖电影 / 搞乜鬼夺命杂作
IMDb链接: tt0175142

惊声尖笑的剧情简介 · · · · · ·
  6 个朋友:辛迪(安娜•法瑞丝 Anna•Faris 饰),鲍比(琼•阿伯拉罕Jon•Abrahams 饰),布佛(莎诺•伊丽莎白 Shannon Elizabeth 饰),格雷戈(拉科恩•玛诺 Lochlyn Munro 饰),雷(肖恩•韦恩斯 Shawn Wayans 饰) ,和布兰达(雷吉娜•赫尔 Regina Hall 饰)现在正深陷困境,被一位连环杀手跟踪。事情起源于他们在去年万圣节的晚上开车回家时发生了车祸,为了逃避责任,他们没有报警,而是选择逃离了现场。现今,一位自称知道他们的事的连环杀手,似乎已经从恐怖电影里走出来,进入了他们的生活。六位好友将不得不想方设法逃离这个杀手的魔掌和那些恼人的记者,如果他们想活下去的话……

截图




Video
ID                                       : 1
Format                                   : AVC
Format/Info                              : Advanced Video Codec
Format profile                           : High@L4.1
Format settings, CABAC                   : Yes
Format settings, ReFrames                : 5 frames
Codec ID                                 : V_MPEG4/ISO/AVC
Duration                                 : 1h 28mn
Bit rate                                 : 12.2 Mbps
Width                                    : 1 920 pixels
Height                                   : 800 pixels
Display aspect ratio                     : 2.40:1
Frame rate mode                          : Constant
Frame rate                               : 23.976 (24000/1001) fps
Color space                              : YUV
Chroma subsampling                       : 4:2:0
Bit depth                                : 8 bits
Scan type                                : Progressive
Bits/(Pixel*Frame)                       : 0.332
Stream size                              : 7.40 GiB (93%)
Writing library                          : x264 core 60 r890 a55f1c3
Encoding settings                        : cabac=1 / ref=5 / deblock=1:0:0 / analyse=0x3:0x133 / me=umh / subme=7 / brdo=1 / mixed_ref=1 / me_range=24 / chroma_me=1 / trellis=2 / 8x8dct=1 / cqm=0 / deadzone=21,11 / chroma_qp_offset=0 / threads=12 / nr=0 / decimate=1 / mbaff=0 / bframes=12 / b_pyramid=1 / b_adapt=1 / b_bias=0 / direct=1 / wpredb=1 / bime=1 / keyint=239 / keyint_min=25 / scenecut=40(pre) / rc=2pass / bitrate=12243 / ratetol=1.0 / rceq=\'blurCplx^(1-qComp)\' / qcomp=1.00 / qpmin=10 / qpmax=51 / qpstep=4 / cplxblur=20.0 / qblur=0.5 / ip_ratio=1.40 / pb_ratio=1.30 / aq=2:1.00
Default                                  : Yes
Forced                                   : No

Audio
ID                                       : 2
Format                                   : AC-3
Format/Info                              : Audio Coding 3
Mode extension                           : CM (complete main)
Format settings, Endianness              : Big
Codec ID                                 : A_AC3
Duration                                 : 1h 28mn
Bit rate mode                            : Constant
Bit rate                                 : 640 Kbps
Channel(s)                               : 6 channels
Channel positions                        : Front: L C R, Side: L R, LFE
Sampling rate                            : 48.0 KHz
Frame rate                               : 31.250 fps (1536 spf)
Compression mode                         : Lossy
Stream size                              : 404 MiB (5%)
Default                                  : Yes
Forced                                   : No



Scary.Movie.2000.1080p.BluRay.x264.torrent

80.07 KB, 下载次数: 24

QQ电影交流群: 498117193

0

主题

363

帖子

272

影币

龙套

Rank: 3Rank: 3Rank: 3

积分
272
注册时间
2011-8-25
最后登录
2018-9-24
发表于 2018-3-11 10:29:53 | 显示全部楼层
感谢楼主的分享,楼主发片辛苦啦

QQ电影交流群: 498117193
您需要登录后才可以回帖 登录 | 注册

本版积分规则

BT探索

GMT+8, 2018-9-24 17:35

Powered by Discuz! X3.2

© 2001-2013 Comsenz Inc.

快速回复 返回顶部 返回列表