BT探索

 找回密码
 注册
搜索
查看: 187|回复: 0

[日韩] 复仇在我.Vengeance.Is.Mine.1979.1080p.BluRay.x264-CiNEFiLE.10.93 GB

[复制链接]

3万

主题

4万

帖子

12万

影币

管理员

Rank: 8Rank: 8Rank: 8Rank: 8Rank: 8Rank: 8Rank: 8Rank: 8

积分
120834
注册时间
2010-9-1
最后登录
2018-6-18

Medal No.1Medal No.2Medal No.3Medal No.4Medal No.5Medal No.6Medal No.7Medal No.8Medal No.9Medal No.10

发表于 2018-3-12 08:53:10 | 显示全部楼层 |阅读模式
海报


导演: 今村昌平
编剧: 马场当 / 池端俊策
主演: 绪形拳 / 小川真由美 / 三国连太郎 / 倍赏美津子 / 清川虹子 / 日向铃子
类型: 剧情 / 犯罪
制片国家/地区: 日本
语言: 日语
上映日期: 1979-04-21(日本)
片长: 140分钟
又名: 我要复仇 / Vengeance Is Mine
IMDb链接: tt0079182

复仇在我的剧情简介 · · · · · ·
  警车上,落网的连续杀人犯槚津严(绪形拳 饰)神态轻松,并在后来的审讯中拒不交代杀死职员柴田与马场的经过……槚津严出身于信奉天主教的渔民家庭,由于宗教歧视,严家的小船被没收,年幼的严试图反抗却被父亲制止,由此父亲丧失了在严心目中的地位。青年严因偷窃美军设备出狱后与加津子奉子成婚,然而很快又因诈骗入狱。父亲为阻止加津子离婚登门拜访,谁知两人却发生了不伦的关系,再次出狱的严不齿妻子与父亲所为,离家出走,从此开始了伴随杀人与诈骗的流浪旅程。严乔装大学教授与旅馆中的暗娼交好,间歇时仍然犯下累累罪行,而此时与他共居的母子二人,并不知晓身边人是日本知名的通缉犯……
  本片获1979年日本《电影旬报》十佳电影第一名。

复仇在我的获奖情况
第4届报知映画赏 最佳男配角 三国连太郎
第4届报知映画赏 最佳女配角 小川真由美

截图




Video
ID                                       : 1
Format                                   : AVC
Format/Info                              : Advanced Video Codec
Format profile                           : High@L4.1
Format settings, CABAC                   : Yes
Format settings, ReFrames                : 4 frames
Muxing mode                              : Header stripping
Codec ID                                 : V_MPEG4/ISO/AVC
Duration                                 : 2h 20mn
Bit rate                                 : 9 631 Kbps
Width                                    : 1 920 pixels
Height                                   : 1 048 pixels
Display aspect ratio                     : 1.85:1
Frame rate mode                          : Constant
Frame rate                               : 23.976 fps
Color space                              : YUV
Chroma subsampling                       : 4:2:0
Bit depth                                : 8 bits
Scan type                                : Progressive
Bits/(Pixel*Frame)                       : 0.200
Stream size                              : 9.23 GiB (84%)
Writing library                          : x264 core 104 r1688 0b36c6d
Encoding settings                        : cabac=1 / ref=4 / deblock=1:0:0 / analyse=0x3:0x133 / me=umh / subme=7 / psy=1 / psy_rd=1.00:0.00 / mixed_ref=1 / me_range=16 / chroma_me=1 / trellis=1 / 8x8dct=1 / cqm=0 / deadzone=21,11 / fast_pskip=0 / chroma_qp_offset=-2 / threads=6 / sliced_threads=0 / nr=0 / decimate=1 / interlaced=0 / constrained_intra=0 / bframes=3 / b_pyramid=2 / b_adapt=1 / b_bias=0 / direct=1 / weightb=1 / open_gop=0 / weightp=2 / keyint=250 / keyint_min=23 / scenecut=40 / intra_refresh=0 / rc_lookahead=40 / rc=2pass / mbtree=1 / bitrate=9631 / ratetol=1.0 / qcomp=0.60 / qpmin=10 / qpmax=51 / qpstep=4 / cplxblur=20.0 / qblur=0.5 / ip_ratio=1.40 / aq=1:1.00
Language                                 : English
Default                                  : Yes
Forced                                   : No

Audio
ID                                       : 2
Format                                   : DTS
Format/Info                              : Digital Theater Systems
Mode                                     : 16
Format settings, Endianness              : Big
Muxing mode                              : Header stripping
Codec ID                                 : A_DTS
Duration                                 : 2h 20mn
Bit rate mode                            : Constant
Bit rate                                 : 1 509 Kbps
Channel(s)                               : 2 channels
Channel positions                        : Front: L R
Sampling rate                            : 48.0 KHz
Bit depth                                : 24 bits
Compression mode                         : Lossy
Stream size                              : 1.48 GiB (14%)
Language                                 : Japanese
Default                                  : Yes
Forced                                   : No

Text
ID                                       : 3
Format                                   : UTF-8
Codec ID                                 : S_TEXT/UTF8
Codec ID/Info                            : UTF-8 Plain Text
Language                                 : English
Default                                  : Yes
Forced                                   : No


Vengeance.Is.Mine.1979.1080p.BluRay.x264.torrent

55.27 KB, 下载次数: 9

电影交流QQ群: 498117193
您需要登录后才可以回帖 登录 | 注册

本版积分规则

小黑屋|手机版|BT探索

GMT+8, 2018-6-19 04:44

Powered by Discuz! X3.2

© 2001-2013 Comsenz Inc.

快速回复 返回顶部 返回列表