BT探索

 找回密码
 注册
查看: 168|回复: 0

[欧美] 完美的世界.A.Perfect.World.1993.1080p.BluRay.x264-HD4U.9.83 GB

[复制链接]

3万

主题

4万

帖子

13万

影币

管理员

Rank: 8Rank: 8Rank: 8Rank: 8Rank: 8Rank: 8Rank: 8Rank: 8

积分
133320
注册时间
2010-9-1
最后登录
2018-9-24

Medal No.1Medal No.2Medal No.3Medal No.4Medal No.5Medal No.6Medal No.7Medal No.8Medal No.9Medal No.10

发表于 2018-3-13 10:05:09 | 显示全部楼层 |阅读模式
海报


导演: 克林特·伊斯特伍德
编剧: 约翰·李·汉考克
主演: 凯文·科斯特纳 / 劳拉·邓恩 / 克林特·伊斯特伍德 / T·J·劳瑟 / 基斯·斯扎拉巴基克
类型: 剧情 / 犯罪
制片国家/地区: 美国
语言: 英语
上映日期: 1993-11-24(美国)
片长: 138分钟 / 125分钟(德国电视版)
又名: 强盗保镳
IMDb链接: tt0107808

完美的世界的剧情简介 · · · · · ·
  单亲孩子菲利普·佩里(T·J·劳瑟 T.J. Lowther 饰)的母亲对他管教甚严,8岁的小菲利普甚至从未参加过一次鬼节讨糖果的游戏。附近州监狱的两名罪犯越狱成功,劫持了菲利普作为人质,向德州边界逃窜。途中,罪犯之一的布奇(凯文·科斯特纳 Kevin Costner 饰)干掉了鲁莽愚蠢的同伙,却对小菲利普照顾有加。与此同时,德州警探瑞德(克林特·伊斯特伍德 Clint Eastwood 饰)带着手下和州长特派的犯罪专家萨利(劳拉·邓恩 Laura Dern 饰)一同火速追捕布奇。双方在德克萨斯州境内展开了一场公路赛大竞技;而小菲利普也经历了很多从未想过过的刺激与快乐,并与布奇产生了一种近似父子的不寻常感情……

截图




Video
ID                                       : 1
Format                                   : AVC
Format/Info                              : Advanced Video Codec
Format profile                           : High@L4.1
Format settings, CABAC                   : Yes
Format settings, ReFrames                : 5 frames
Codec ID                                 : V_MPEG4/ISO/AVC
Duration                                 : 2 h 18 min
Bit rate                                 : 8 670 kb/s
Width                                    : 1 920 pixels
Height                                   : 800 pixels
Display aspect ratio                     : 2.40:1
Frame rate mode                          : Constant
Frame rate                               : 23.976 FPS
Color space                              : YUV
Chroma subsampling                       : 4:2:0
Bit depth                                : 8 bits
Scan type                                : Progressive
Bits/(Pixel*Frame)                       : 0.235
Stream size                              : 8.18 GiB (83%)
Writing library                          : x264 core 124 r2197 69a0443
Encoding settings                        : cabac=1 / ref=5 / deblock=1:0:0 / analyse=0x3:0x133 / me=umh / subme=7 / psy=1 / psy_rd=1.00:0.00 / mixed_ref=1 / me_range=16 / chroma_me=1 / trellis=1 / 8x8dct=1 / cqm=0 / deadzone=21,11 / fast_pskip=0 / chroma_qp_offset=-2 / threads=36 / sliced_threads=0 / nr=0 / decimate=1 / interlaced=0 / bluray_compat=0 / constrained_intra=0 / bframes=3 / b_pyramid=2 / b_adapt=1 / b_bias=0 / direct=1 / weightb=1 / open_gop=0 / weightp=2 / keyint=250 / keyint_min=23 / scenecut=40 / intra_refresh=0 / rc_lookahead=40 / rc=2pass / mbtree=1 / bitrate=8670 / ratetol=1.0 / qcomp=0.60 / qpmin=0 / qpmax=69 / qpstep=4 / cplxblur=20.0 / qblur=0.5 / ip_ratio=1.40 / aq=1:1.00
Language                                 : English
Default                                  : Yes
Forced                                   : No

Audio
ID                                       : 2
Format                                   : DTS
Format/Info                              : Digital Theater Systems
Mode                                     : 16
Format settings, Endianness              : Big
Codec ID                                 : A_DTS
Duration                                 : 2 h 18 min
Bit rate mode                            : Constant
Bit rate                                 : 1 509 kb/s
Channel(s)                               : 6 channels
Channel positions                        : Front: L C R, Side: L R, LFE
Sampling rate                            : 48.0 kHz
Frame rate                               : 93.750 FPS (512 spf)
Bit depth                                : 24 bits
Compression mode                         : Lossy
Stream size                              : 1.46 GiB (15%)
Language                                 : English
Default                                  : Yes
Forced                                   : No

Text
ID                                       : 3
Format                                   : UTF-8
Codec ID                                 : S_TEXT/UTF8
Codec ID/Info                            : UTF-8 Plain Text
Language                                 : English
Default                                  : No
Forced                                   : No

Menu
00:00:00.000                             : en:00:00:00.000
00:01:33.510                             : en:00:01:33.510
00:02:45.332                             : en:00:02:45.332
00:07:19.230                             : en:00:07:19.230
00:13:46.659                             : en:00:13:46.659
00:17:12.073                             : en:00:17:12.073
00:19:54.735                             : en:00:19:54.735
00:22:36.355                             : en:00:22:36.355
00:29:37.025                             : en:00:29:37.025
00:34:02.749                             : en:00:34:02.749
00:37:18.528                             : en:00:37:18.528
00:42:41.684                             : en:00:42:41.684
00:44:20.491                             : en:00:44:20.491
00:45:56.629                             : en:00:45:56.629
00:53:30.457                             : en:00:53:30.457
00:55:41.421                             : en:00:55:41.421
00:58:39.474                             : en:00:58:39.474
01:03:19.921                             : en:01:03:19.921
01:05:27.090                             : en:01:05:27.090
01:08:28.938                             : en:01:08:28.938
01:16:16.030                             : en:01:16:16.030
01:16:56.612                             : en:01:16:56.612
01:18:24.742                             : en:01:18:24.742
01:20:03.132                             : en:01:20:03.132
01:24:22.432                             : en:01:24:22.432
01:28:26.635                             : en:01:28:26.635
01:31:37.659                             : en:01:31:37.659
01:33:23.932                             : en:01:33:23.932
01:38:06.255                             : en:01:38:06.255
01:41:08.813                             : en:01:41:08.813
01:42:55.169                             : en:01:42:55.169
01:46:39.184                             : en:01:46:39.184
01:49:20.304                             : en:01:49:20.304
01:53:49.197                             : en:01:53:49.197
01:58:51.458                             : en:01:58:51.458
02:02:40.395                             : en:02:02:40.395
02:04:14.530                             : en:02:04:14.530
02:07:09.330                             : en:02:07:09.330
02:08:02.633                             : en:02:08:02.633
02:10:46.338                             : en:02:10:46.338
02:11:18.204                             : en:02:11:18.204
02:13:01.640                             : en:02:13:01.640


A.Perfect.World.1993.1080p.BluRay.x264.torrent

98.87 KB, 下载次数: 19

QQ电影交流群: 498117193
您需要登录后才可以回帖 登录 | 注册

本版积分规则

BT探索

GMT+8, 2018-9-24 17:11

Powered by Discuz! X3.2

© 2001-2013 Comsenz Inc.

快速回复 返回顶部 返回列表