BT探索

 找回密码
 注册
查看: 168|回复: 0

[1080p] 勇闯雷霆峰.The.Eiger.Sanction.1975.1080p.BluRay.X264-AMIABLE.8.75 GB

[复制链接]

3万

主题

4万

帖子

14万

影币

管理员

Rank: 8Rank: 8Rank: 8Rank: 8Rank: 8Rank: 8Rank: 8Rank: 8

积分
144748
注册时间
2010-9-1
最后登录
2018-12-18

Medal No.1Medal No.2Medal No.3Medal No.4Medal No.5Medal No.6Medal No.7Medal No.8Medal No.9Medal No.10

发表于 2018-3-13 10:09:43 | 显示全部楼层 |阅读模式
海报


导演: 克林特·伊斯特伍德
编剧: Hal Dresner / 沃伦·墨菲
主演: 克林特·伊斯特伍德 / 乔治·肯尼迪 / 沃内塔·麦吉
类型: 动作 / 爱情 / 惊悚 / 冒险
制片国家/地区: 美国
语言: 英语
上映日期: 1975-05-21
片长: 123 分钟
又名: 勇闯夺命峰 / 埃格惩罚
IMDb链接: tt0072926

勇闯雷霆峰的剧情简介 · · · · · ·
  已退休的特级杀手在大学系任教,但中央情报局对他威逼利诱,令他不得不复出,主要任务是在雪山上进行暗杀。

截图





Video
ID                                       : 1
Format                                   : AVC
Format/Info                              : Advanced Video Codec
Format profile                           : High@L4.1
Format settings, CABAC                   : Yes
Format settings, ReFrames                : 5 frames
Codec ID                                 : V_MPEG4/ISO/AVC
Duration                                 : 2 h 8 min
Bit rate                                 : 8 204 kb/s
Width                                    : 1 920 pixels
Height                                   : 816 pixels
Display aspect ratio                     : 2.35:1
Frame rate mode                          : Constant
Frame rate                               : 23.976 (24000/1001) FPS
Color space                              : YUV
Chroma subsampling                       : 4:2:0
Bit depth                                : 8 bits
Scan type                                : Progressive
Bits/(Pixel*Frame)                       : 0.218
Stream size                              : 7.21 GiB (82%)
Writing library                          : x264 core 142 r2453 ea0ca51
Encoding settings                        : cabac=1 / ref=5 / deblock=1:-3:-3 / analyse=0x3:0x113 / me=umh / subme=8 / psy=1 / psy_rd=1.00:0.00 / mixed_ref=1 / me_range=16 / chroma_me=1 / trellis=1 / 8x8dct=1 / cqm=0 / deadzone=21,11 / fast_pskip=1 / chroma_qp_offset=-2 / threads=12 / lookahead_threads=2 / sliced_threads=0 / nr=0 / decimate=1 / interlaced=0 / bluray_compat=0 / constrained_intra=0 / bframes=3 / b_pyramid=2 / b_adapt=2 / b_bias=0 / direct=3 / weightb=1 / open_gop=0 / weightp=2 / keyint=240 / keyint_min=24 / scenecut=40 / intra_refresh=0 / rc_lookahead=50 / rc=2pass / mbtree=1 / bitrate=8204 / ratetol=1.0 / qcomp=0.60 / qpmin=0 / qpmax=69 / qpstep=4 / cplxblur=20.0 / qblur=0.5 / ip_ratio=1.40 / aq=1:1.00
Language                                 : English
Default                                  : Yes
Forced                                   : No

Audio
ID                                       : 2
Format                                   : DTS
Format/Info                              : Digital Theater Systems
Mode                                     : 16
Format settings, Endianness              : Big
Codec ID                                 : A_DTS
Duration                                 : 2 h 8 min
Bit rate mode                            : Constant
Bit rate                                 : 1 509 kb/s
Channel(s)                               : 2 channels
Channel positions                        : Front: L R
Sampling rate                            : 48.0 kHz
Frame rate                               : 93.750 FPS (512 spf)
Bit depth                                : 24 bits
Compression mode                         : Lossy
Stream size                              : 1.36 GiB (16%)
Language                                 : English
Default                                  : Yes
Forced                                   : No

Text #1
ID                                       : 3
Format                                   : UTF-8
Codec ID                                 : S_TEXT/UTF8
Codec ID/Info                            : UTF-8 Plain Text
Title                                    : SDH
Language                                 : English
Default                                  : No
Forced                                   : No

Text #2
ID                                       : 4
Format                                   : UTF-8
Codec ID                                 : S_TEXT/UTF8
Codec ID/Info                            : UTF-8 Plain Text
Language                                 : English
Default                                  : No
Forced                                   : No

Menu
00:00:00.000                             : en:00:00:00.000
00:09:03.251                             : en:00:09:03.251
00:13:14.961                             : en:00:13:14.961
00:17:59.787                             : en:00:17:59.787
00:22:35.521                             : en:00:22:35.521
00:30:11.101                             : en:00:30:11.101
00:40:31.721                             : en:00:40:31.721
00:58:51.403                             : en:00:58:51.403
01:06:15.054                             : en:01:06:15.054
01:19:00.402                             : en:01:19:00.402
01:31:45.917                             : en:01:31:45.917
01:42:52.958                             : en:01:42:52.958
01:47:10.924                             : en:01:47:10.924
01:54:17.559                             : en:01:54:17.559
01:59:59.943                             : en:01:59:59.943
02:06:39.801                             : en:02:06:39.801


The.Eiger.Sanction.1975.1080p.BluRay.X264.torrent

88.12 KB, 下载次数: 14

QQ电影交流群: 498117193
您需要登录后才可以回帖 登录 | 注册

本版积分规则

BT探索

GMT+8, 2018-12-19 01:08

Powered by Discuz! X3.2

© 2001-2013 Comsenz Inc.

快速回复 返回顶部 返回列表