BT探索

 找回密码
 注册
查看: 166|回复: 0

[欧美] 火狐.Firefox.1982.1080p.BluRay.x264-TheWretched.8.75 GB

[复制链接]

3万

主题

4万

帖子

13万

影币

管理员

Rank: 8Rank: 8Rank: 8Rank: 8Rank: 8Rank: 8Rank: 8Rank: 8

积分
133320
注册时间
2010-9-1
最后登录
2018-9-24

Medal No.1Medal No.2Medal No.3Medal No.4Medal No.5Medal No.6Medal No.7Medal No.8Medal No.9Medal No.10

发表于 2018-3-13 10:12:13 | 显示全部楼层 |阅读模式
海报


导演: 克林特·伊斯特伍德
编剧: Alex Lasker / Wendell Wellman
主演: 克林特·伊斯特伍德 / 弗雷迪·琼斯 / David Huffman
类型: 动作 / 科幻 / 惊悚
制片国家/地区: 美国
语言: 英语
上映日期: 1982-06-18
片长: 136 分钟
又名: 火狐狸
IMDb链接: tt0083943

火狐的剧情简介 · · · · · ·
  苏联在1982年开发了米格31喷气机时,全世界大为惊恐,唯一对策只有盗取这架超性能之飞机,而有能力担任此任务的就只有越战空中英雄甘德,甘德终于被说服由退休生涯中复出,接受一连串的特种训练后,前往俄国并与俄国特务数次交手,展开一场惊心动魄的激烈空战……

截图





Video
ID                                       : 1
Format                                   : AVC
Format/Info                              : Advanced Video Codec
Format profile                           : High@L4
Format settings, CABAC                   : Yes
Format settings, ReFrames                : 5 frames
Codec ID                                 : V_MPEG4/ISO/AVC
Duration                                 : 2h 4mn
Bit rate                                 : 8 531 Kbps
Width                                    : 1 920 pixels
Height                                   : 800 pixels
Display aspect ratio                     : 2.40:1
Frame rate mode                          : Constant
Frame rate                               : 23.976 fps
Color space                              : YUV
Chroma subsampling                       : 4:2:0
Bit depth                                : 8 bits
Scan type                                : Progressive
Bits/(Pixel*Frame)                       : 0.232
Stream size                              : 7.26 GiB (83%)
Writing library                          : x264 core 115 r1995 c1e60b9
Encoding settings                        : cabac=1 / ref=5 / deblock=1:0:0 / analyse=0x3:0x113 / me=umh / subme=7 / psy=1 / psy_rd=1.00:0.00 / mixed_ref=1 / me_range=16 / chroma_me=1 / trellis=1 / 8x8dct=1 / cqm=0 / deadzone=21,11 / fast_pskip=1 / chroma_qp_offset=-2 / threads=12 / sliced_threads=0 / nr=0 / decimate=1 / interlaced=0 / bluray_compat=0 / constrained_intra=0 / bframes=3 / b_pyramid=2 / b_adapt=1 / b_bias=0 / direct=3 / weightb=1 / open_gop=0 / weightp=2 / keyint=250 / keyint_min=23 / scenecut=40 / intra_refresh=0 / rc_lookahead=40 / rc=2pass / mbtree=1 / bitrate=8531 / ratetol=1.0 / qcomp=0.60 / qpmin=0 / qpmax=69 / qpstep=4 / cplxblur=20.0 / qblur=0.5 / ip_ratio=1.40 / aq=1:1.00
Language                                 : English
Default                                  : Yes
Forced                                   : No

Audio
ID                                       : 2
Format                                   : DTS
Format/Info                              : Digital Theater Systems
Mode                                     : 16
Format settings, Endianness              : Big
Codec ID                                 : A_DTS
Duration                                 : 2h 4mn
Bit rate mode                            : Constant
Bit rate                                 : 1 509 Kbps
Channel(s)                               : 6 channels
Channel positions                        : Front: L C R, Side: L R, LFE
Sampling rate                            : 48.0 KHz
Bit depth                                : 24 bits
Compression mode                         : Lossy
Stream size                              : 1.31 GiB (15%)
Title                                    : English DTS 1509kbps
Language                                 : English
Default                                  : Yes
Forced                                   : No

Menu
00:00:00.000                             : en:00:00:00.000
00:04:41.948                             : en:00:04:41.948
00:09:11.551                             : en:00:09:11.551
00:12:03.973                             : en:00:12:03.973
00:16:46.923                             : en:00:16:46.923
00:21:15.649                             : en:00:21:15.649
00:22:53.080                             : en:00:22:53.080
00:26:21.663                             : en:00:26:21.663
00:29:17.506                             : en:00:29:17.506
00:34:23.353                             : en:00:34:23.353
00:39:47.719                             : en:00:39:47.719
00:42:33.259                             : en:00:42:33.259
00:47:25.384                             : en:00:47:25.384
00:49:29.091                             : en:00:49:29.091
00:51:31.714                             : en:00:51:31.714
00:54:53.290                             : en:00:54:53.290
00:56:25.882                             : en:00:56:25.882
00:57:54.638                             : en:00:57:54.638
01:04:03.173                             : en:01:04:03.173
01:08:20.346                             : en:01:08:20.346
01:10:48.494                             : en:01:10:48.494
01:12:13.037                             : en:01:12:13.037
01:14:51.821                             : en:01:14:51.821
01:16:45.559                             : en:01:16:45.559
01:21:25.881                             : en:01:21:25.881
01:25:41.970                             : en:01:25:41.970
01:27:14.980                             : en:01:27:14.980
01:34:48.349                             : en:01:34:48.349
01:37:00.523                             : en:01:37:00.523
01:38:53.761                             : en:01:38:53.761
01:40:52.004                             : en:01:40:52.004
01:44:07.658                             : en:01:44:07.658
01:48:21.662                             : en:01:48:21.662
01:52:14.102                             : en:01:52:14.102
01:56:38.200                             : en:01:56:38.200
01:58:22.595                             : en:01:58:22.595
01:59:41.174                             : en:01:59:41.174




Firefox.1982.1080p.BluRay.x264.torrent

88 KB, 下载次数: 42

QQ电影交流群: 498117193
您需要登录后才可以回帖 登录 | 注册

本版积分规则

BT探索

GMT+8, 2018-9-24 17:44

Powered by Discuz! X3.2

© 2001-2013 Comsenz Inc.

快速回复 返回顶部 返回列表