BT探索

 找回密码
 注册
查看: 209|回复: 0

[欧美] 伤心岭.Heartbreak.Ridge.1986.1080p.Bluray.x264-TENEIGHTY.8.75 GB

[复制链接]

3万

主题

4万

帖子

13万

影币

管理员

Rank: 8Rank: 8Rank: 8Rank: 8Rank: 8Rank: 8Rank: 8Rank: 8

积分
133320
注册时间
2010-9-1
最后登录
2018-9-24

Medal No.1Medal No.2Medal No.3Medal No.4Medal No.5Medal No.6Medal No.7Medal No.8Medal No.9Medal No.10

发表于 2018-3-13 11:45:40 | 显示全部楼层 |阅读模式
海报


导演: 克林特·伊斯特伍德
编剧: James Carabatsos / Joseph Stinson
主演: Clint Eastwood / Marsha Mason / Mario Van Peebles
类型: 剧情 / 喜剧 / 动作 / 战争
制片国家/地区: 美国
语言: 英语 / 西班牙语
上映日期: 1986-12-05
片长: 130 分钟
又名: 战火云霄 / 魔鬼士官长
IMDb链接: tt0091187

伤心岭的剧情简介 · · · · · ·
  汤姆·海韦是美国海军陆战队的老兵,在1983年已是海军陆战队服役最长的军人之一。他曾参加过朝鲜战争和越南战争,并在朝鲜战争的伤心岭获得荣誉勋章。精锐部队第一排需要第二排配合进行军事训练,海韦的任务就是对第二排的纪律进行整顿。他轻蔑地称第二排的新兵为“太太”,而不服气的新兵则常常使他下不来台,海韦的私生活也不顺利:在军营附近当招待的妻子阿吉同他离了婚,海韦想同她重归于好,却遭到了阿吉的断然拒绝。心中不快的海韦遂和前妻的新男友和电影下载女老板发生了争执。演习中,由海韦训练的第二排打败了第一排,士兵遂对其刮目相看。后来,海韦带领第二排成功地解救出困在格林纳达的美国公民,凯旋时受到了热烈欢迎,这时,回心转意的阿吉也和海韦重修旧好。

伤心岭的获奖情况
第59届奥斯卡金像奖 最佳音响(提名) Vern Poore / 莱斯·弗莱舒尔兹

截图





Video
ID                                       : 1
Format                                   : AVC
Format/Info                              : Advanced Video Codec
Format profile                           : High@L4.1
Format settings, CABAC                   : Yes
Format settings, ReFrames                : 4 frames
Codec ID                                 : V_MPEG4/ISO/AVC
Duration                                 : 2h 9mn
Bit rate                                 : 8 125 Kbps
Width                                    : 1 920 pixels
Height                                   : 1 080 pixels
Display aspect ratio                     : 16:9
Frame rate mode                          : Constant
Frame rate                               : 23.976 fps
Color space                              : YUV
Chroma subsampling                       : 4:2:0
Bit depth                                : 8 bits
Scan type                                : Progressive
Bits/(Pixel*Frame)                       : 0.163
Stream size                              : 7.20 GiB (82%)
Writing library                          : x264 core 98 r1643 59a9e03
Encoding settings                        : cabac=1 / ref=4 / deblock=1:0:0 / analyse=0x3:0x133 / me=umh / subme=8 / psy=1 / psy_rd=1.00:0.00 / mixed_ref=1 / me_range=16 / chroma_me=1 / trellis=1 / 8x8dct=1 / cqm=0 / deadzone=21,11 / fast_pskip=0 / chroma_qp_offset=-2 / threads=18 / sliced_threads=0 / nr=0 / decimate=1 / interlaced=0 / constrained_intra=0 / bframes=3 / b_pyramid=2 / b_adapt=1 / b_bias=0 / direct=1 / weightb=1 / weightp=2 / keyint=250 / keyint_min=25 / scenecut=40 / intra_refresh=0 / rc_lookahead=40 / rc=2pass / mbtree=1 / bitrate=8125 / ratetol=1.0 / qcomp=0.60 / qpmin=10 / qpmax=51 / qpstep=4 / cplxblur=20.0 / qblur=0.5 / ip_ratio=1.40 / aq=1:1.00
Language                                 : English
Default                                  : No
Forced                                   : No

Audio
ID                                       : 2
Format                                   : DTS
Format/Info                              : Digital Theater Systems
Mode                                     : 16
Format settings, Endianness              : Big
Codec ID                                 : A_DTS
Duration                                 : 2h 9mn
Bit rate mode                            : Constant
Bit rate                                 : 1 509 Kbps
Channel(s)                               : 6 channels
Channel positions                        : Front: L C R, Side: L R, LFE
Sampling rate                            : 48.0 KHz
Bit depth                                : 24 bits
Compression mode                         : Lossy
Stream size                              : 1.37 GiB (16%)
Default                                  : Yes
Forced                                   : No


Heartbreak.Ridge.1986.1080p.Bluray.x264.torrent

88.13 KB, 下载次数: 19

QQ电影交流群: 498117193
您需要登录后才可以回帖 登录 | 注册

本版积分规则

BT探索

GMT+8, 2018-9-24 18:00

Powered by Discuz! X3.2

© 2001-2013 Comsenz Inc.

快速回复 返回顶部 返回列表