BT探索

 找回密码
 注册
查看: 483|回复: 1

[1080p] 神秘河.Mystic.River.2003.1080p.BluRay.x264-MELiTE.10.94 GB

[复制链接]

3万

主题

4万

帖子

14万

影币

管理员

Rank: 8Rank: 8Rank: 8Rank: 8Rank: 8Rank: 8Rank: 8Rank: 8

积分
144428
注册时间
2010-9-1
最后登录
2018-12-16

Medal No.1Medal No.2Medal No.3Medal No.4Medal No.5Medal No.6Medal No.7Medal No.8Medal No.9Medal No.10

发表于 2018-3-13 11:49:27 | 显示全部楼层 |阅读模式
海报


导演: 克林特·伊斯特伍德
编剧: 布莱恩·海尔格兰德 / 丹尼斯·勒翰
主演: 西恩·潘 / 蒂姆·罗宾斯 / 凯文·贝肯 / 劳伦斯·菲什伯恩 / 马西娅·盖伊·哈登 / 劳拉·琳妮 / 埃米·罗森
类型: 剧情 / 悬疑 / 惊悚 / 犯罪
制片国家/地区: 美国 / 澳大利亚
语言: 英语
上映日期: 2003-05-23(戛纳电影节) / 2003-10-15(美国)
片长: 138分钟
又名: 悬河杀机 / 神秘之河 / 神秘河流 / 杀人约会 / 神秘悬河
IMDb链接: tt0327056

神秘河的剧情简介 · · · · · ·
  吉米(西恩•潘 Sean Penn 饰)、戴夫(蒂姆•罗宾斯 Tim Robbins 饰)和西恩(凯文•贝肯 Kevin Bacon 饰)是儿时最要好的玩伴。戴夫10岁那年的一桩事件却改变了单纯美好的童年和友谊。尚且年幼的戴夫被歹徒绑架,对他施以性虐待,这个羞辱的经历从此改变了戴夫的人生。他变得与别人越来越疏离,三人的友谊在慢慢消融。
  三人各奔东西,却因为吉米的女儿遭杀害而重新有了联系。因为负责这个案件的,碰巧是西恩,此时他已是一名警探,面对好友女儿的被害,心急要找出真凶,却意外发现所有证据的矛头都指向了那个曾经亲密无间的伙伴——戴夫。关系变得剑拔弩张,而过去的友谊,如今的对立,都在拉扯着每个当事人的心。

神秘河的获奖情况
第76届奥斯卡金像奖 最佳影片(提名) 克林特·伊斯特伍德 / 罗伯特·洛伦兹 / 朱迪·霍伊特
第56届戛纳电影节 主竞赛单元 金棕榈奖(提名) 克林特·伊斯特伍德
第57届英国电影学院奖 电影奖 最佳男主角(提名) 西恩·潘


截图




Video
ID                                       : 1
Format                                   : AVC
Format/Info                              : Advanced Video Codec
Format profile                           : High@L4.1
Format settings, CABAC                   : Yes
Format settings, ReFrames                : 5 frames
Codec ID                                 : V_MPEG4/ISO/AVC
Duration                                 : 2h 17mn
Bit rate                                 : 9 839 Kbps
Width                                    : 1 920 pixels
Height                                   : 800 pixels
Display aspect ratio                     : 2.40:1
Frame rate mode                          : Constant
Frame rate                               : 23.976 fps
Color space                              : YUV
Chroma subsampling                       : 4:2:0
Bit depth                                : 8 bits
Scan type                                : Progressive
Bits/(Pixel*Frame)                       : 0.267
Stream size                              : 9.26 GiB (85%)
Writing library                          : x264 core 83 r1400 20fa784
Encoding settings                        : cabac=1 / ref=5 / deblock=1:0:0 / analyse=0x3:0x133 / me=umh / subme=7 / psy=1 / psy_rd=1.0:0.0 / mixed_ref=1 / me_range=16 / chroma_me=1 / trellis=1 / 8x8dct=1 / cqm=0 / deadzone=21,11 / fast_pskip=1 / chroma_qp_offset=-2 / threads=6 / sliced_threads=0 / nr=0 / decimate=1 / mbaff=0 / constrained_intra=0 / bframes=3 / b_pyramid=2 / b_adapt=2 / b_bias=0 / direct=3 / wpredb=1 / wpredp=2 / keyint=250 / keyint_min=25 / scenecut=40 / intra_refresh=0 / rc=2pass / mbtree=0 / bitrate=9839 / ratetol=1.0 / qcomp=0.60 / qpmin=10 / qpmax=51 / qpstep=4 / cplxblur=20.0 / qblur=0.5 / ip_ratio=1.40 / pb_ratio=1.30 / aq=1:1.00
Language                                 : English
Default                                  : No
Forced                                   : No

Audio
ID                                       : 2
Format                                   : DTS
Format/Info                              : Digital Theater Systems
Mode                                     : 16
Format settings, Endianness              : Big
Codec ID                                 : A_DTS
Duration                                 : 2h 17mn
Bit rate mode                            : Constant
Bit rate                                 : 1 509 Kbps
Channel(s)                               : 6 channels
Channel positions                        : Front: L C R, Side: L R, LFE
Sampling rate                            : 48.0 KHz
Frame rate                               : 93.750 fps (512 spf)
Bit depth                                : 24 bits
Compression mode                         : Lossy
Stream size                              : 1.45 GiB (13%)
Language                                 : English
Default                                  : Yes
Forced                                   : No

Text
ID                                       : 3
Format                                   : UTF-8
Codec ID                                 : S_TEXT/UTF8
Codec ID/Info                            : UTF-8 Plain Text
Language                                 : English
Default                                  : No
Forced                                   : No



Mystic.River.2003.1080p.BluRay.x264.torrent

55.22 KB, 下载次数: 127

QQ电影交流群: 498117193

0

主题

779

帖子

688

影币

配角

Rank: 4Rank: 4Rank: 4Rank: 4

积分
688
注册时间
2011-8-25
最后登录
2018-12-16

Medal No.1Medal No.2Medal No.3Medal No.4Medal No.5

发表于 2018-3-13 12:56:26 | 显示全部楼层
感谢楼主分享好看的电影
QQ电影交流群: 498117193
您需要登录后才可以回帖 登录 | 注册

本版积分规则

BT探索

GMT+8, 2018-12-16 12:33

Powered by Discuz! X3.2

© 2001-2013 Comsenz Inc.

快速回复 返回顶部 返回列表