BT探索

 找回密码
 注册
查看: 394|回复: 0

[1080p] 太空牛仔.Space.Cowboys.2000.1080p.BluRay.x264.DD5.1-FGT.10.13 GB

[复制链接]

3万

主题

4万

帖子

14万

影币

管理员

Rank: 8Rank: 8Rank: 8Rank: 8Rank: 8Rank: 8Rank: 8Rank: 8

积分
144748
注册时间
2010-9-1
最后登录
2018-12-18

Medal No.1Medal No.2Medal No.3Medal No.4Medal No.5Medal No.6Medal No.7Medal No.8Medal No.9Medal No.10

发表于 2018-3-13 11:57:09 | 显示全部楼层 |阅读模式
海报


导演: 克林特·伊斯特伍德
编剧: Ken Kaufman / Howard Klausner
主演: 克林特·伊斯特伍德 / 汤米·李·琼斯 / 唐纳德·萨瑟兰 / 詹姆斯·加纳 / 詹姆斯·克伦威尔 / 马西娅·盖伊·哈登
类型: 惊悚 / 冒险
官方网站: http://www.spacecowboys.net/
制片国家/地区: 美国 / 澳大利亚
语言: 英语
上映日期: 2000-08-04
片长: 130 分钟
又名: 太空大哥大 / 征空救星
IMDb链接: tt0186566

太空牛仔的剧情简介 · · · · · ·
  21世纪初,一颗隶属于前苏联的卫星突然出现故障,随时可能坠毁于美国本土,这令美国太空总署(NASA)的大小官员分外紧张。NASA打算派出太空人前往外太空修复卫星,但是却没有找到任何通晓当年技术的技术人员。所谓病急乱投医,几个业已退休的老家伙就这样浮出水面。他们分别是弗兰克·柯文(克林特·伊斯特伍德 Clint Eastwood 饰)、霍克·霍金斯(汤米·李·琼斯 Tommy Lee Jones 饰)、杰瑞·奥尼尔(唐纳德·萨瑟兰 Donald Sutherland 饰)以及坦克·苏利文(詹姆斯·加纳 James Garner 饰)。在上世纪50年代,他们原本会是首批飞向太空的队员,却因为计划的调整而抱憾终生。如今,那颗捣乱的卫星终于能令他们一圆飞上太空的梦想……
  本片荣获2001年日本《电影旬报》最佳外语片奖、2001年日本每日电影最佳外语片奖。

太空牛仔的获奖情况
第73届奥斯卡金像奖 最佳音效剪辑(提名) 巴布·亚斯曼 / 阿兰·罗伯特·默里
第25届报知映画赏 海外作品奖 克林特·伊斯特伍德

截图





Video
ID                                       : 1
Format                                   : AVC
Format/Info                              : Advanced Video Codec
Format profile                           : High@L4.1
Format settings, CABAC                   : Yes
Format settings, ReFrames                : 5 frames
Codec ID                                 : V_MPEG4/ISO/AVC
Duration                                 : 2h 10mn
Bit rate                                 : 10.5 Mbps
Width                                    : 1 920 pixels
Height                                   : 800 pixels
Display aspect ratio                     : 2.40:1
Frame rate mode                          : Constant
Frame rate                               : 23.976 fps
Color space                              : YUV
Chroma subsampling                       : 4:2:0
Bit depth                                : 8 bits
Scan type                                : Progressive
Bits/(Pixel*Frame)                       : 0.284
Stream size                              : 9.35 GiB (92%)
Writing library                          : x264 core 58 svn-736M
Encoding settings                        : cabac=1 / ref=5 / deblock=1:-3:-3 / analyse=0x3:0x113 / me=umh / subme=7 / me-prepass=0 / brdo=1 / mixed_ref=1 / me_range=26 / chroma_me=1 / trellis=1 / 8x8dct=1 / cqm=2 / deadzone=21,11 / chroma_qp_offset=0 / threads=6 / nr=0 / decimate=1 / mbaff=0 / bframes=16 / b_pyramid=1 / b_adapt=1 / b_bias=0 / direct=3 / wpredb=1 / bime=1 / keyint=250 / keyint_min=25 / scenecut=40(pre) / rc=2pass / bitrate=10477 / ratetol=1.0 / rceq=\'blurCplx^(1-qComp)\' / qcomp=0.60 / qpmin=10 / qpmax=51 / qpstep=4 / cplxblur=20.0 / qblur=0.5 / ip_ratio=1.40 / pb_ratio=1.30 / aq=1:0.6:15.0
Language                                 : English
Default                                  : Yes
Forced                                   : No

Audio
ID                                       : 2
Format                                   : AC-3
Format/Info                              : Audio Coding 3
Mode extension                           : CM (complete main)
Format settings, Endianness              : Big
Codec ID                                 : A_AC3
Duration                                 : 2h 10mn
Bit rate mode                            : Constant
Bit rate                                 : 640 Kbps
Channel(s)                               : 6 channels
Channel positions                        : Front: L C R, Side: L R, LFE
Sampling rate                            : 48.0 KHz
Bit depth                                : 16 bits
Compression mode                         : Lossy
Stream size                              : 597 MiB (6%)
Language                                 : English
Default                                  : Yes
Forced                                   : No

Text #1
ID                                       : 3
Format                                   : UTF-8
Codec ID                                 : S_TEXT/UTF8
Codec ID/Info                            : UTF-8 Plain Text
Language                                 : English
Default                                  : Yes
Forced                                   : No

Text #2
ID                                       : 4
Format                                   : UTF-8
Codec ID                                 : S_TEXT/UTF8
Codec ID/Info                            : UTF-8 Plain Text
Language                                 : Spanish
Default                                  : No
Forced                                   : No




Space.Cowboys.2000.1080p.BluRay.x264.DD5.1.torrent

51.26 KB, 下载次数: 26

QQ电影交流群: 498117193
您需要登录后才可以回帖 登录 | 注册

本版积分规则

BT探索

GMT+8, 2018-12-19 01:24

Powered by Discuz! X3.2

© 2001-2013 Comsenz Inc.

快速回复 返回顶部 返回列表