BT探索

 找回密码
 注册
查看: 235|回复: 0

[1080p] 西部执法者.The.Outlaw.Josey.Wales.1976.1080p.BluRay.x264-CiNEFiLE.9.84 GB

[复制链接]

3万

主题

4万

帖子

14万

影币

管理员

Rank: 8Rank: 8Rank: 8Rank: 8Rank: 8Rank: 8Rank: 8Rank: 8

积分
144748
注册时间
2010-9-1
最后登录
2018-12-18

Medal No.1Medal No.2Medal No.3Medal No.4Medal No.5Medal No.6Medal No.7Medal No.8Medal No.9Medal No.10

发表于 2018-3-13 12:02:03 | 显示全部楼层 |阅读模式
海报


导演: 克林特·伊斯特伍德
编剧: 菲利普·考夫曼 / 索尼娅·切尔努斯 / 福里斯特·卡特
主演: 克林特·伊斯特伍德 / 桑德拉·洛克 / 奇夫·丹·乔治 / 比尔·麦金尼 / 约翰·沃侬 / 葆拉·特鲁曼 / 山姆·伯顿斯 / 杰拉尔丁·基姆斯 / 伍德罗夫·帕弗雷 / 乔伊丝·詹姆森 / 谢布·伍利 / 罗亚尔·达诺 / 马特·克拉克 / 约翰·韦罗斯 / 威尔·萨姆森
类型: 剧情 / 动作 / 惊悚 / 西部 / 冒险
制片国家/地区: 美国
语言: 英语 / 纳瓦霍语 / 西班牙语
上映日期: 1976-06-30
片长: 135 分钟
又名: 不法之徒迈・韦尔斯
IMDb链接: tt0075029

西部执法者的剧情简介 · · · · · ·
  美国内战期间,流寇把乔赛·韦尔斯(克林特·伊斯特伍德 饰)一家的安稳田园摧残到家破人亡。于是乔赛·韦尔斯决定加入南军游击队,保护手无寸铁的人。内战结束时,他拒绝向杀害自己家人的北军投降,走上一条逃亡之路。在路上,他遇到一个印第安切诺基老酋长,一个纳瓦霍妇女,和 来自堪萨斯的母女俩……

西部执法者的获奖情况
第49届奥斯卡金像奖 最佳原创配乐(提名) 杰里·菲尔丁

截图




Video
ID                                       : 1
Format                                   : AVC
Format/Info                              : Advanced Video Codec
Format profile                           : High@L4.1
Format settings, CABAC                   : Yes
Format settings, ReFrames                : 5 frames
Codec ID                                 : V_MPEG4/ISO/AVC
Duration                                 : 2 h 15 min
Bit rate                                 : 8 860 kb/s
Width                                    : 1 920 pixels
Height                                   : 800 pixels
Display aspect ratio                     : 2.40:1
Frame rate mode                          : Constant
Frame rate                               : 23.976 (24000/1001) FPS
Color space                              : YUV
Chroma subsampling                       : 4:2:0
Bit depth                                : 8 bits
Scan type                                : Progressive
Bits/(Pixel*Frame)                       : 0.241
Stream size                              : 8.21 GiB (83%)
Writing library                          : x264 core 115 r1995 c1e60b9
Encoding settings                        : cabac=1 / ref=5 / deblock=1:0:0 / analyse=0x3:0x113 / me=umh / subme=7 / psy=1 / psy_rd=1.00:0.00 / mixed_ref=1 / me_range=16 / chroma_me=1 / trellis=1 / 8x8dct=1 / cqm=0 / deadzone=21,11 / fast_pskip=0 / chroma_qp_offset=-2 / threads=12 / sliced_threads=0 / nr=0 / decimate=1 / interlaced=0 / bluray_compat=0 / constrained_intra=0 / bframes=3 / b_pyramid=2 / b_adapt=1 / b_bias=0 / direct=1 / weightb=1 / open_gop=0 / weightp=2 / keyint=250 / keyint_min=23 / scenecut=40 / intra_refresh=0 / rc_lookahead=40 / rc=2pass / mbtree=1 / bitrate=8860 / ratetol=1.0 / qcomp=0.60 / qpmin=0 / qpmax=69 / qpstep=4 / cplxblur=20.0 / qblur=0.5 / ip_ratio=1.40 / aq=1:1.00
Language                                 : English
Default                                  : Yes
Forced                                   : No

Audio
ID                                       : 2
Format                                   : DTS
Format/Info                              : Digital Theater Systems
Mode                                     : 16
Format settings, Endianness              : Big
Codec ID                                 : A_DTS
Duration                                 : 2 h 15 min
Bit rate mode                            : Constant
Bit rate                                 : 1 509 kb/s
Channel(s)                               : 6 channels
Channel positions                        : Front: L C R, Side: L R, LFE
Sampling rate                            : 48.0 kHz
Frame rate                               : 93.750 FPS (512 spf)
Bit depth                                : 24 bits
Compression mode                         : Lossy
Stream size                              : 1.43 GiB (15%)
Language                                 : English
Default                                  : Yes
Forced                                   : No

Text
ID                                       : 3
Format                                   : UTF-8
Codec ID                                 : S_TEXT/UTF8
Codec ID/Info                            : UTF-8 Plain Text
Language                                 : English
Default                                  : No
Forced                                   : No




The.Outlaw.Josey.Wales.1976.1080p.BluRay.x264.torrent

98.95 KB, 下载次数: 23

QQ电影交流群: 498117193
您需要登录后才可以回帖 登录 | 注册

本版积分规则

BT探索

GMT+8, 2018-12-19 01:43

Powered by Discuz! X3.2

© 2001-2013 Comsenz Inc.

快速回复 返回顶部 返回列表