BT探索

 找回密码
 注册
查看: 430|回复: 1

[欧美] 潜龙轰天2.Under.Siege.2.Dark.Territory.1995.1080p.BluRay.x264-CULTHD.7.95 GB

[复制链接]

3万

主题

4万

帖子

13万

影币

管理员

Rank: 8Rank: 8Rank: 8Rank: 8Rank: 8Rank: 8Rank: 8Rank: 8

积分
133320
注册时间
2010-9-1
最后登录
2018-9-24

Medal No.1Medal No.2Medal No.3Medal No.4Medal No.5Medal No.6Medal No.7Medal No.8Medal No.9Medal No.10

发表于 2018-3-13 12:09:44 | 显示全部楼层 |阅读模式
海报


导演: 杰夫·墨菲
编剧: J·F·劳顿 / 马特·里夫斯 / 理查德·哈特姆
主演: 史蒂文·席格 / 埃里克·博高森 / 埃沃雷特·麦克吉尔 / 凯瑟琳·海格尔 / 摩里斯·切斯塔特 / 彼得·格林纳 / 帕特里克·基尔帕特里克 / 斯科特·索尔斯
类型: 动作 / 惊悚
制片国家/地区: 美国
语言: 英语
上映日期: 1995-07-14
片长: 100 分钟 / Germany: 92 分钟(16-rated version)
又名: 暴走潜龙2:黑暗领地 / 绝处逢生2 / 魔鬼战将2
IMDb链接: tt0114781

潜龙轰天2的剧情简介 · · · · · ·
  “游牧者一号”是美国国防部开发的配备有超级粒子束武器的同步卫星,他具有高倍的望远镜,并可精确打击地面上任一目标。然而掌握卫星密码的两名技术人员却被疯狂的科学家查维斯·丹(Eric Bogosian 饰)和特种部队上校马库斯·潘(Everett McGill 饰)率领的恐怖团伙所虏获,“游牧者一号”也毫无悬念地被这群家伙所劫持。国防部虽然紧急应对,却无法与狡猾的恐怖分子抗衡,只能眼睁睁地看着华盛顿成为“游牧者一号”将要袭击的目标。
  与此同时,前海军特种部队成员西斯·里贝克(史蒂文·西格 Steven Seagal 饰)正与侄女莎拉(Katherine Heigl 饰)搭乘这趟列车旅行。在危急时刻,西斯挺身而出,独自与恐怖分子展开正邪对抗……

截图





Video
ID                                       : 1
Format                                   : AVC
Format/Info                              : Advanced Video Codec
Format profile                           : High@L4.1
Format settings, CABAC                   : Yes
Format settings, ReFrames                : 3 frames
Codec ID                                 : V_MPEG4/ISO/AVC
Duration                                 : 1h 39mn
Bit rate mode                            : Variable
Bit rate                                 : 10.8 Mbps
Maximum bit rate                         : 38.0 Mbps
Width                                    : 1 920 pixels
Height                                   : 1 080 pixels
Display aspect ratio                     : 16:9
Frame rate mode                          : Constant
Frame rate                               : 23.976 fps
Color space                              : YUV
Chroma subsampling                       : 4:2:0
Bit depth                                : 8 bits
Scan type                                : Progressive
Bits/(Pixel*Frame)                       : 0.217
Stream size                              : 7.35 GiB (92%)
Writing library                          : x264 core 61 r965M 3d2983d
Encoding settings                        : cabac=1 / ref=3 / deblock=1:0:0 / analyse=0x3:0x113 / me=hex / subme=6 / psy_rd=1.0:0.0 / brdo=0 / mixed_ref=1 / me_range=12 / chroma_me=1 / trellis=0 / 8x8dct=1 / cqm=0 / deadzone=21,11 / chroma_qp_offset=-2 / threads=3 / nr=0 / decimate=1 / mbaff=0 / bframes=3 / b_pyramid=0 / b_adapt=1 / b_bias=0 / direct=3 / wpredb=1 / bime=1 / keyint=24 / keyint_min=1 / scenecut=40(pre) / rc=2pass / bitrate=10774 / ratetol=1.0 / qcomp=1.00 / qpmin=10 / qpmax=51 / qpstep=4 / cplxblur=20.0 / qblur=0.5 / vbv_maxrate=38000 / vbv_bufsize=30000 / ip_ratio=1.10 / pb_ratio=1.10 / aq=2:1.00
Language                                 : English
Default                                  : Yes
Forced                                   : No

Audio
ID                                       : 2
Format                                   : AC-3
Format/Info                              : Audio Coding 3
Mode extension                           : CM (complete main)
Format settings, Endianness              : Big
Codec ID                                 : A_AC3
Duration                                 : 1h 39mn
Bit rate mode                            : Constant
Bit rate                                 : 640 Kbps
Channel(s)                               : 6 channels
Channel positions                        : Front: L C R, Side: L R, LFE
Sampling rate                            : 48.0 KHz
Frame rate                               : 31.250 fps (1536 spf)
Compression mode                         : Lossy
Stream size                              : 456 MiB (6%)
Language                                 : English
Default                                  : Yes
Forced                                   : No

Text #1
ID                                       : 3
Format                                   : UTF-8
Codec ID                                 : S_TEXT/UTF8
Codec ID/Info                            : UTF-8 Plain Text
Language                                 : English
Default                                  : Yes
Forced                                   : No

Text #2
ID                                       : 4
Format                                   : UTF-8
Codec ID                                 : S_TEXT/UTF8
Codec ID/Info                            : UTF-8 Plain Text
Language                                 : Swedish
Default                                  : No
Forced                                   : No

Text #3
ID                                       : 5
Format                                   : UTF-8
Codec ID                                 : S_TEXT/UTF8
Codec ID/Info                            : UTF-8 Plain Text
Language                                 : Norwegian
Default                                  : No
Forced                                   : No

Text #4
ID                                       : 6
Format                                   : UTF-8
Codec ID                                 : S_TEXT/UTF8
Codec ID/Info                            : UTF-8 Plain Text
Language                                 : Finnish
Default                                  : No
Forced                                   : No

Text #5
ID                                       : 7
Format                                   : UTF-8
Codec ID                                 : S_TEXT/UTF8
Codec ID/Info                            : UTF-8 Plain Text
Language                                 : Danish
Default                                  : No
Forced                                   : No

Text #6
ID                                       : 8
Format                                   : UTF-8
Codec ID                                 : S_TEXT/UTF8
Codec ID/Info                            : UTF-8 Plain Text
Language                                 : Dutch
Default                                  : No
Forced                                   : No



Under.Siege.2.Dark.Territory.1995.1080p.BluRay.x264.torrent

80.07 KB, 下载次数: 60

QQ电影交流群: 498117193

0

主题

8

帖子

16

影币

观众

Rank: 1

积分
16
注册时间
2018-5-3
最后登录
2018-9-23
发表于 2018-5-3 15:54:16 | 显示全部楼层
潜龙轰天2很好的片子
QQ电影交流群: 498117193
您需要登录后才可以回帖 登录 | 注册

本版积分规则

BT探索

GMT+8, 2018-9-24 18:14

Powered by Discuz! X3.2

© 2001-2013 Comsenz Inc.

快速回复 返回顶部 返回列表