BT探索

 找回密码
 注册
搜索
查看: 227|回复: 0

[欧美] 潜龙轰天.Under.Siege.1992.1080p.BluRay.x264-CULTHD.7.95 GB

[复制链接]

3万

主题

4万

帖子

12万

影币

管理员

Rank: 8Rank: 8Rank: 8Rank: 8Rank: 8Rank: 8Rank: 8Rank: 8

积分
121010
注册时间
2010-9-1
最后登录
2018-6-19

Medal No.1Medal No.2Medal No.3Medal No.4Medal No.5Medal No.6Medal No.7Medal No.8Medal No.9Medal No.10

发表于 2018-3-13 12:12:09 | 显示全部楼层 |阅读模式
海报


导演: 安德鲁·戴维斯
编剧: J·F·劳顿
主演: 史蒂文·席格 / 汤米·李·琼斯 / 加里·布塞 / 埃丽卡·埃伦尼克 / 帕特里克·奥尼尔 / 格伦·莫肖尔
类型: 动作 / 惊悚 / 犯罪
制片国家/地区: 法国 / 美国
语言: 英语 / 意大利语
上映日期: 1992-10-09(美国)
片长: 103分钟
又名: 藏龙出海(一) / 魔鬼战将
IMDb链接: tt0105690

潜龙轰天的剧情简介 · · · · · ·
  美国历史上著名的密苏里号战列舰即将退役,盛大的庆典连总统也莅临。而老舰长的生日亦在这一天,舰上的厨师——雷白下士(史蒂文·席格 Steven Seagal 饰)正在全力筹备宴席,讨人嫌的副舰长奎尔与雷白发生冲突并将其关入冷藏室。一支劳军演艺队伍来到舰上,正当表演掀起高潮之际,劳军艺人们突然与奎尔同时行动,袭击船员并控制了密苏里号。“艺人”中的史崔尼(汤米·李·琼斯 Tommy Lee Jones 饰)原是中情局特工,精通舰只,他与奎尔合作,获得了舰上多枚携带核弹头的战斧导弹发射密码。军方被这一恐怖袭击彻底震惊,却又应对无法,此时从冷藏室逃出的雷白成为了他们唯一的希望……

潜龙轰天的获奖情况
第65届奥斯卡金像奖 最佳音效剪辑(提名) John Leveque / Bruce Stambler
第65届奥斯卡金像奖 最佳音响(提名) 弗兰克·A·蒙塔诺 / Scott D. Smith

截图





Video
ID                                       : 1
Format                                   : AVC
Format/Info                              : Advanced Video Codec
Format profile                           : High@L4.1
Format settings, CABAC                   : Yes
Format settings, ReFrames                : 3 frames
Codec ID                                 : V_MPEG4/ISO/AVC
Duration                                 : 1h 42mn
Bit rate mode                            : Variable
Bit rate                                 : 10.5 Mbps
Maximum bit rate                         : 38.0 Mbps
Width                                    : 1 920 pixels
Height                                   : 1 080 pixels
Display aspect ratio                     : 16:9
Frame rate mode                          : Constant
Frame rate                               : 23.976 fps
Color space                              : YUV
Chroma subsampling                       : 4:2:0
Bit depth                                : 8 bits
Scan type                                : Progressive
Bits/(Pixel*Frame)                       : 0.210
Stream size                              : 7.33 GiB (92%)
Writing library                          : x264 core 61 r965M 3d2983d
Encoding settings                        : cabac=1 / ref=3 / deblock=1:0:0 / analyse=0x3:0x113 / me=hex / subme=6 / psy_rd=1.0:0.0 / brdo=0 / mixed_ref=1 / me_range=12 / chroma_me=1 / trellis=0 / 8x8dct=1 / cqm=0 / deadzone=21,11 / chroma_qp_offset=-2 / threads=3 / nr=0 / decimate=1 / mbaff=0 / bframes=3 / b_pyramid=0 / b_adapt=1 / b_bias=0 / direct=3 / wpredb=1 / bime=1 / keyint=24 / keyint_min=1 / scenecut=40(pre) / rc=2pass / bitrate=10453 / ratetol=1.0 / qcomp=1.00 / qpmin=10 / qpmax=51 / qpstep=4 / cplxblur=20.0 / qblur=0.5 / vbv_maxrate=38000 / vbv_bufsize=30000 / ip_ratio=1.10 / pb_ratio=1.10 / aq=2:1.00
Language                                 : English
Default                                  : Yes
Forced                                   : No

Audio
ID                                       : 2
Format                                   : AC-3
Format/Info                              : Audio Coding 3
Mode extension                           : CM (complete main)
Format settings, Endianness              : Big
Codec ID                                 : A_AC3
Duration                                 : 1h 42mn
Bit rate mode                            : Constant
Bit rate                                 : 640 Kbps
Channel(s)                               : 6 channels
Channel positions                        : Front: L C R, Side: L R, LFE
Sampling rate                            : 48.0 KHz
Frame rate                               : 31.250 fps (1536 spf)
Compression mode                         : Lossy
Stream size                              : 469 MiB (6%)
Language                                 : English
Default                                  : Yes
Forced                                   : No

Text #1
ID                                       : 3
Format                                   : UTF-8
Codec ID                                 : S_TEXT/UTF8
Codec ID/Info                            : UTF-8 Plain Text
Language                                 : English
Default                                  : Yes
Forced                                   : No

Text #2
ID                                       : 4
Format                                   : UTF-8
Codec ID                                 : S_TEXT/UTF8
Codec ID/Info                            : UTF-8 Plain Text
Language                                 : Swedish
Default                                  : No
Forced                                   : No

Text #3
ID                                       : 5
Format                                   : UTF-8
Codec ID                                 : S_TEXT/UTF8
Codec ID/Info                            : UTF-8 Plain Text
Language                                 : Danish
Default                                  : No
Forced                                   : No

Text #4
ID                                       : 6
Format                                   : UTF-8
Codec ID                                 : S_TEXT/UTF8
Codec ID/Info                            : UTF-8 Plain Text
Language                                 : Finnish
Default                                  : No
Forced                                   : No

Text #5
ID                                       : 7
Format                                   : UTF-8
Codec ID                                 : S_TEXT/UTF8
Codec ID/Info                            : UTF-8 Plain Text
Language                                 : Norwegian
Default                                  : No
Forced                                   : No

Text #6
ID                                       : 8
Format                                   : UTF-8
Codec ID                                 : S_TEXT/UTF8
Codec ID/Info                            : UTF-8 Plain Text
Language                                 : Dutch
Default                                  : No
Forced                                   : No



Under.Siege.1992.1080p.BluRay.x264.torrent

80.05 KB, 下载次数: 56

电影交流QQ群: 498117193
您需要登录后才可以回帖 登录 | 注册

本版积分规则

小黑屋|手机版|BT探索

GMT+8, 2018-6-20 07:38

Powered by Discuz! X3.2

© 2001-2013 Comsenz Inc.

快速回复 返回顶部 返回列表