BT探索

 找回密码
 注册
搜索
查看: 118|回复: 0

[Remux] 勇敢者游戏:决战丛林.2017.1080p.BluRay.REMUX.AVC.DTS-HD.MA.5.1.中文字幕.29.30 GB

[复制链接]

3万

主题

4万

帖子

12万

影币

管理员

Rank: 8Rank: 8Rank: 8Rank: 8Rank: 8Rank: 8Rank: 8Rank: 8

积分
121010
注册时间
2010-9-1
最后登录
2018-6-19

Medal No.1Medal No.2Medal No.3Medal No.4Medal No.5Medal No.6Medal No.7Medal No.8Medal No.9Medal No.10

发表于 2018-3-14 12:13:14 | 显示全部楼层 |阅读模式
海报


导演: 杰克·卡斯丹
编剧: 克里斯·麦克纳 / 埃里克·萨默斯 / 斯科特·罗森伯格 / 杰夫·皮克纳 / 克里斯·范·奥斯伯格
主演: 道恩·强森 / 凯文·哈特 / 杰克·布莱克 / 凯伦·吉兰 / 尼克·乔纳斯 / 瑞斯·达比 / 鲍比·坎纳瓦尔 / 亚历克斯·沃尔夫 / 瑟达吕斯·布兰 / 麦迪森·伊瑟曼 / 摩根·特纳 / 梅森·古乔内 / 马克·埃文·杰克逊 / 玛琳·辛科 / 特雷西·邦纳 / 玛莉贝丝·梦露 / 米西·派勒 / 杰米·雷内尔 / 卡尔利斯·布克 / 罗翰·昌德 / 科林·汉克斯
类型: 动作 / 奇幻 / 冒险
官方网站: www.jumanjimovie.com/site/
制片国家/地区: 美国
语言: 英语
上映日期: 2018-01-12(中国大陆) / 2017-12-20(美国)
片长: 119分钟
又名: 野蛮游戏:疯狂丛林(台) / 逃出魔幻纪:丛林挑机(港) / 新勇敢者的游戏 / 勇敢者的游戏
IMDb链接: tt2283362

勇敢者游戏:决战丛林的剧情简介 · · · · · ·
  斯宾塞、“冰箱”弗里奇、贝瑟尼和玛莎是某高中的问题学生,这一日他们因不同的错误而被留校劳动。在一间堆满陈旧废弃物的储藏室内,斯宾塞发现一台年代久远的游戏机。四人原本想放松一下,谁知却被吸进了游戏机中。在凶险的尤曼吉热带丛林里,少男少女分别变成了勇石博士(道恩·强森 Dwayne Johnson 饰)、毛子·芬巴(凯文·哈特 Kevin Hart 饰)、奥伯伦教授(杰克·布莱克 Jack Black 饰)和铁拳露比(凯伦·吉兰 Karen Gillan 饰),他们必须遵照游戏规则,突破邪恶博士的阻挠,将宝石放回原处,恢复尤曼吉的和平,而这也是他们重返现实世界的唯一途径。
  毒蛇、猛兽以及纠缠不休的暴徒,为四个玩家带来了永生难忘的冒险体验……


截图




Video
ID                                       : 1
Format                                   : AVC
Format/Info                              : Advanced Video Codec
Format profile                           : High@L4.1
Format settings                          : CABAC / 2 Ref Frames
Format settings, CABAC                   : Yes
Format settings, ReFrames                : 2 frames
Format settings, GOP                     : M=1, N=10
Codec ID                                 : V_MPEG4/ISO/AVC
Duration                                 : 1 h 59 min
Bit rate mode                            : Variable
Bit rate                                 : 24.9 Mb/s
Width                                    : 1 920 pixels
Height                                   : 1 080 pixels
Display aspect ratio                     : 16:9
Frame rate mode                          : Constant
Frame rate                               : 23.976 (24000/1001) FPS
Color space                              : YUV
Chroma subsampling                       : 4:2:0
Bit depth                                : 8 bits
Scan type                                : Progressive
Bits/(Pixel*Frame)                       : 0.500
Stream size                              : 20.7 GiB (71%)
Title                                    : Jumanji.Welcome.to.the.Jungle.2017.1080p.BluRay.REMUX.AVC.DTS-HD.MA.5.1-FGT
Language                                 : English
Default                                  : No
Forced                                   : No

Audio #1
ID                                       : 2
Format                                   : DTS
Format/Info                              : Digital Theater Systems
Format profile                           : MA / Core
Codec ID                                 : A_DTS
Duration                                 : 1 h 59 min
Bit rate mode                            : Variable / Constant
Bit rate                                 : 2 249 kb/s / 1 509 kb/s
Channel(s)                               : 6 channels
Channel positions                        : Front: L C R, Side: L R, LFE
Sampling rate                            : 48.0 kHz
Frame rate                               : 93.750 FPS (512 SPF)
Bit depth                                : 16 bits
Compression mode                         : Lossless / Lossy
Stream size                              : 1.87 GiB (6%)
Title                                    : Jumanji.Welcome.to.the.Jungle.2017.1080p.BluRay.REMUX.AVC.DTS-HD.MA.5.1-FGT
Language                                 : English
Default                                  : Yes
Forced                                   : No

Audio #2
ID                                       : 3
Format                                   : DTS
Format/Info                              : Digital Theater Systems
Codec ID                                 : A_DTS
Duration                                 : 1 h 59 min
Bit rate mode                            : Constant
Bit rate                                 : 1 509 kb/s
Channel(s)                               : 6 channels
Channel positions                        : Front: L C R, Side: L R, LFE
Sampling rate                            : 48.0 kHz
Frame rate                               : 93.750 FPS (512 SPF)
Bit depth                                : 16 bits
Compression mode                         : Lossy
Stream size                              : 1.25 GiB (4%)
Title                                    : Jumanji.Welcome.to.the.Jungle.2017.1080p.BluRay.REMUX.AVC.DTS-HD.MA.5.1-FGT
Language                                 : English
Default                                  : No
Forced                                   : No

Audio #3
ID                                       : 4
Format                                   : AC-3
Format/Info                              : Audio Coding 3
Codec ID                                 : A_AC3
Duration                                 : 1 h 59 min
Bit rate mode                            : Constant
Bit rate                                 : 640 kb/s
Channel(s)                               : 6 channels
Channel positions                        : Front: L C R, Side: L R, LFE
Sampling rate                            : 48.0 kHz
Frame rate                               : 31.250 FPS (1536 SPF)
Bit depth                                : 16 bits
Compression mode                         : Lossy
Stream size                              : 545 MiB (2%)
Title                                    : Jumanji.Welcome.to.the.Jungle.2017.1080p.BluRay.REMUX.AVC.DTS-HD.MA.5.1-FGT
Language                                 : English
Service kind                             : Complete Main
Default                                  : No
Forced                                   : No

Audio #4
ID                                       : 5
Format                                   : AC-3
Format/Info                              : Audio Coding 3
Codec ID                                 : A_AC3
Duration                                 : 1 h 59 min
Bit rate mode                            : Constant
Bit rate                                 : 640 kb/s
Channel(s)                               : 6 channels
Channel positions                        : Front: L C R, Side: L R, LFE
Sampling rate                            : 48.0 kHz
Frame rate                               : 31.250 FPS (1536 SPF)
Bit depth                                : 16 bits
Compression mode                         : Lossy
Stream size                              : 545 MiB (2%)
Title                                    : Jumanji.Welcome.to.the.Jungle.2017.1080p.BluRay.REMUX.AVC.DTS-HD.MA.5.1-FGT
Language                                 : French
Service kind                             : Complete Main
Default                                  : No
Forced                                   : No

Audio #5
ID                                       : 6
Format                                   : DTS
Format/Info                              : Digital Theater Systems
Format profile                           : MA / Core
Codec ID                                 : A_DTS
Duration                                 : 1 h 59 min
Bit rate mode                            : Variable / Constant
Bit rate                                 : 2 286 kb/s / 1 509 kb/s
Channel(s)                               : 6 channels
Channel positions                        : Front: L C R, Side: L R, LFE
Sampling rate                            : 48.0 kHz
Frame rate                               : 93.750 FPS (512 SPF)
Bit depth                                : 16 bits
Compression mode                         : Lossless / Lossy
Stream size                              : 1.90 GiB (6%)
Title                                    : Jumanji.Welcome.to.the.Jungle.2017.1080p.BluRay.REMUX.AVC.DTS-HD.MA.5.1-FGT
Language                                 : Portuguese
Default                                  : No
Forced                                   : No

Audio #6
ID                                       : 7
Format                                   : DTS
Format/Info                              : Digital Theater Systems
Codec ID                                 : A_DTS
Duration                                 : 1 h 59 min
Bit rate mode                            : Constant
Bit rate                                 : 1 509 kb/s
Channel(s)                               : 6 channels
Channel positions                        : Front: L C R, Side: L R, LFE
Sampling rate                            : 48.0 kHz
Frame rate                               : 93.750 FPS (512 SPF)
Bit depth                                : 16 bits
Compression mode                         : Lossy
Stream size                              : 1.25 GiB (4%)
Title                                    : Jumanji.Welcome.to.the.Jungle.2017.1080p.BluRay.REMUX.AVC.DTS-HD.MA.5.1-FGT
Language                                 : Portuguese
Default                                  : No
Forced                                   : No

Audio #7
ID                                       : 8
Format                                   : AC-3
Format/Info                              : Audio Coding 3
Codec ID                                 : A_AC3
Duration                                 : 1 h 59 min
Bit rate mode                            : Constant
Bit rate                                 : 640 kb/s
Channel(s)                               : 6 channels
Channel positions                        : Front: L C R, Side: L R, LFE
Sampling rate                            : 48.0 kHz
Frame rate                               : 31.250 FPS (1536 SPF)
Bit depth                                : 16 bits
Compression mode                         : Lossy
Stream size                              : 545 MiB (2%)
Title                                    : Jumanji.Welcome.to.the.Jungle.2017.1080p.BluRay.REMUX.AVC.DTS-HD.MA.5.1-FGT
Language                                 : Spanish
Service kind                             : Complete Main
Default                                  : No
Forced                                   : No

Audio #8
ID                                       : 9
Format                                   : AC-3
Format/Info                              : Audio Coding 3
Codec ID                                 : A_AC3
Duration                                 : 1 h 59 min
Bit rate mode                            : Constant
Bit rate                                 : 640 kb/s
Channel(s)                               : 6 channels
Channel positions                        : Front: L C R, Side: L R, LFE
Sampling rate                            : 48.0 kHz
Frame rate                               : 31.250 FPS (1536 SPF)
Bit depth                                : 16 bits
Compression mode                         : Lossy
Stream size                              : 545 MiB (2%)
Title                                    : Jumanji.Welcome.to.the.Jungle.2017.1080p.BluRay.REMUX.AVC.DTS-HD.MA.5.1-FGT
Language                                 : Thai
Service kind                             : Complete Main
Default                                  : No
Forced                                   : No

Text #1
ID                                       : 10
Format                                   : PGS
Muxing mode                              : zlib
Codec ID                                 : S_HDMV/PGS
Codec ID/Info                            : Picture based subtitle format used on BDs/HD-DVDs
Duration                                 : 1 h 58 min
Bit rate                                 : 42.2 kb/s
Count of elements                        : 3764
Stream size                              : 35.7 MiB (0%)
Title                                    : English-PGS
Language                                 : English
Default                                  : Yes
Forced                                   : No

Text #2
ID                                       : 11
Format                                   : PGS
Muxing mode                              : zlib
Codec ID                                 : S_HDMV/PGS
Codec ID/Info                            : Picture based subtitle format used on BDs/HD-DVDs
Duration                                 : 1 h 48 min
Bit rate                                 : 38.7 kb/s
Count of elements                        : 3070
Stream size                              : 30.2 MiB (0%)
Title                                    : English-SDH-PGS
Language                                 : English
Default                                  : No
Forced                                   : No

Text #3
ID                                       : 12
Format                                   : PGS
Muxing mode                              : zlib
Codec ID                                 : S_HDMV/PGS
Codec ID/Info                            : Picture based subtitle format used on BDs/HD-DVDs
Duration                                 : 1 h 58 min
Bit rate                                 : 26.8 kb/s
Count of elements                        : 2989
Stream size                              : 22.7 MiB (0%)
Title                                    : Chinese-PGS
Language                                 : Chinese
Default                                  : No
Forced                                   : No

Text #4
ID                                       : 13
Format                                   : PGS
Muxing mode                              : zlib
Codec ID                                 : S_HDMV/PGS
Codec ID/Info                            : Picture based subtitle format used on BDs/HD-DVDs
Duration                                 : 1 h 58 min
Bit rate                                 : 32.2 kb/s
Count of elements                        : 3126
Stream size                              : 27.2 MiB (0%)
Title                                    : Chinese-PGS
Language                                 : Chinese
Default                                  : No
Forced                                   : No

Text #5
ID                                       : 14
Format                                   : PGS
Muxing mode                              : zlib
Codec ID                                 : S_HDMV/PGS
Codec ID/Info                            : Picture based subtitle format used on BDs/HD-DVDs
Duration                                 : 1 h 58 min
Bit rate                                 : 26.3 kb/s
Count of elements                        : 3000
Stream size                              : 22.3 MiB (0%)
Title                                    : Chinese-PGS
Language                                 : Chinese
Default                                  : No
Forced                                   : No

Text #6
ID                                       : 15
Format                                   : PGS
Muxing mode                              : zlib
Codec ID                                 : S_HDMV/PGS
Codec ID/Info                            : Picture based subtitle format used on BDs/HD-DVDs
Duration                                 : 1 h 57 min
Bit rate                                 : 26.2 kb/s
Count of elements                        : 2800
Stream size                              : 22.1 MiB (0%)
Title                                    : French-PGS
Language                                 : French
Default                                  : No
Forced                                   : No

Text #7
ID                                       : 16
Format                                   : PGS
Muxing mode                              : zlib
Codec ID                                 : S_HDMV/PGS
Codec ID/Info                            : Picture based subtitle format used on BDs/HD-DVDs
Duration                                 : 1 h 57 min
Bit rate                                 : 34.2 kb/s
Count of elements                        : 3025
Stream size                              : 28.7 MiB (0%)
Title                                    : Indonesian-PGS
Language                                 : Indonesian
Default                                  : No
Forced                                   : No

Text #8
ID                                       : 17
Format                                   : PGS
Muxing mode                              : zlib
Codec ID                                 : S_HDMV/PGS
Codec ID/Info                            : Picture based subtitle format used on BDs/HD-DVDs
Duration                                 : 1 h 58 min
Bit rate                                 : 23.2 kb/s
Count of elements                        : 3052
Stream size                              : 19.7 MiB (0%)
Title                                    : Korean-PGS
Language                                 : Korean
Default                                  : No
Forced                                   : No

Text #9
ID                                       : 18
Format                                   : PGS
Muxing mode                              : zlib
Codec ID                                 : S_HDMV/PGS
Codec ID/Info                            : Picture based subtitle format used on BDs/HD-DVDs
Duration                                 : 1 h 57 min
Bit rate                                 : 37.9 kb/s
Count of elements                        : 3126
Stream size                              : 31.9 MiB (0%)
Title                                    : Malay-PGS
Language                                 : Malay
Default                                  : No
Forced                                   : No

Text #10
ID                                       : 19
Format                                   : PGS
Muxing mode                              : zlib
Codec ID                                 : S_HDMV/PGS
Codec ID/Info                            : Picture based subtitle format used on BDs/HD-DVDs
Duration                                 : 1 h 57 min
Bit rate                                 : 31.2 kb/s
Count of elements                        : 2878
Stream size                              : 26.3 MiB (0%)
Title                                    : Portuguese-PGS
Language                                 : Portuguese
Default                                  : No
Forced                                   : No

Text #11
ID                                       : 20
Format                                   : PGS
Muxing mode                              : zlib
Codec ID                                 : S_HDMV/PGS
Codec ID/Info                            : Picture based subtitle format used on BDs/HD-DVDs
Duration                                 : 1 h 55 min
Bit rate                                 : 54 b/s
Count of elements                        : 4
Stream size                              : 46.6 KiB (0%)
Title                                    : Portuguese-FORCED-PGS
Language                                 : Portuguese
Default                                  : No
Forced                                   : No

Text #12
ID                                       : 21
Format                                   : PGS
Muxing mode                              : zlib
Codec ID                                 : S_HDMV/PGS
Codec ID/Info                            : Picture based subtitle format used on BDs/HD-DVDs
Duration                                 : 1 h 57 min
Bit rate                                 : 31.9 kb/s
Count of elements                        : 3026
Stream size                              : 26.8 MiB (0%)
Title                                    : Spanish-PGS
Language                                 : Spanish
Default                                  : No
Forced                                   : No

Text #13
ID                                       : 22
Format                                   : PGS
Muxing mode                              : zlib
Codec ID                                 : S_HDMV/PGS
Codec ID/Info                            : Picture based subtitle format used on BDs/HD-DVDs
Duration                                 : 1 h 55 min
Bit rate                                 : 48 b/s
Count of elements                        : 4
Stream size                              : 41.1 KiB (0%)
Title                                    : Spanish-FORCED-PGS
Language                                 : Spanish
Default                                  : No
Forced                                   : No

Text #14
ID                                       : 23
Format                                   : PGS
Muxing mode                              : zlib
Codec ID                                 : S_HDMV/PGS
Codec ID/Info                            : Picture based subtitle format used on BDs/HD-DVDs
Duration                                 : 1 h 57 min
Bit rate                                 : 29.5 kb/s
Count of elements                        : 3120
Stream size                              : 24.8 MiB (0%)
Title                                    : Thai-PGS
Language                                 : Thai
Default                                  : No
Forced                                   : No

Text #15
ID                                       : 24
Format                                   : PGS
Muxing mode                              : zlib
Codec ID                                 : S_HDMV/PGS
Codec ID/Info                            : Picture based subtitle format used on BDs/HD-DVDs
Duration                                 : 1 h 58 min
Bit rate                                 : 36.1 kb/s
Count of elements                        : 3086
Stream size                              : 30.5 MiB (0%)
Title                                    : Vietnamese-PGS
Language                                 : Vietnamese
Default                                  : No
Forced                                   : No

Menu
00:00:00.000                             : en:Chapter 01
00:07:18.020                             : en:Chapter 02
00:17:15.993                             : en:Chapter 03
00:23:23.026                             : en:Chapter 04
00:29:24.971                             : en:Chapter 05
00:42:28.546                             : en:Chapter 06
00:47:11.161                             : en:Chapter 07
00:54:26.471                             : en:Chapter 08
01:03:20.546                             : en:Chapter 09
01:10:21.550                             : en:Chapter 10
01:15:51.672                             : en:Chapter 11
01:24:09.961                             : en:Chapter 12
01:28:19.961                             : en:Chapter 13
01:33:48.414                             : en:Chapter 14
01:42:22.886                             : en:Chapter 15
01:48:31.588                             : en:Chapter 16

勇敢者游戏 决战丛林.2017.1080p.BluRay.REMUX.AVC.DTS-HD.MA.5.1.中文字幕.29.30 GB.torrent

73.83 KB, 下载次数: 27

勇敢者游戏:决战丛林.2017.1080p.BluRay.REMUX.AVC.DTS-HD.MA.5.1.中文字幕.29.30 GB

电影交流QQ群: 498117193
您需要登录后才可以回帖 登录 | 注册

本版积分规则

小黑屋|手机版|BT探索

GMT+8, 2018-6-20 07:41

Powered by Discuz! X3.2

© 2001-2013 Comsenz Inc.

快速回复 返回顶部 返回列表