BT探索

 找回密码
 注册
查看: 152|回复: 0

[Remux] 星球大战8:最后的绝地武士.2017.1080p.BluRay.REMUX.AVC.DTS-HD.MA.7.1-FGT.41.07 GB

[复制链接]

3万

主题

4万

帖子

13万

影币

管理员

Rank: 8Rank: 8Rank: 8Rank: 8Rank: 8Rank: 8Rank: 8Rank: 8

积分
133570
注册时间
2010-9-1
最后登录
2018-9-25

Medal No.1Medal No.2Medal No.3Medal No.4Medal No.5Medal No.6Medal No.7Medal No.8Medal No.9Medal No.10

发表于 2018-3-14 12:31:12 | 显示全部楼层 |阅读模式
海报


导演: 莱恩·约翰逊
编剧: 莱恩·约翰逊 / 乔治·卢卡斯
主演: 马克·哈米尔 / 凯丽·费雪 / 黛西·雷德利 / 亚当·德赖弗 / 约翰·博耶加 / 奥斯卡·伊萨克 / 安迪·瑟金斯 / 露皮塔·尼永奥 / 多姆纳尔·格里森 / 安东尼·丹尼尔斯 / 格温多兰·克里斯蒂 / 凯莉·玛丽·陈 / 劳拉·邓恩 / 本尼西奥·德尔·托罗 / 弗兰克·奥兹 / 比莉·洛德 / 阿曼达·劳伦斯 / 吉米·维 / 贾斯汀·塞洛克斯 / 蒂姆·罗斯 / 汤姆·凯恩 / 亚德里安·埃德蒙松 / 马克·路易斯·琼斯 / 赫敏·科菲尔德 / 吴青芸 / 诺阿·西甘 / 保罗·卡塞 / 米凯拉·科尔 / 普莉安卡·伯福德 / 纳温·乔杜里 / 安德鲁·杰克 / 克里斯塔·克拉克 / 伊川东吾
类型: 动作 / 科幻 / 冒险
官方网站: starwars.com
制片国家/地区: 美国
语言: 英语
上映日期: 2018-01-05(中国大陆) / 2017-12-15(美国)
片长: 152分钟
又名: 星球大战:最后绝地武士(港) / 星球大战8 / 星战8 / Star Wars: Episode VIII
IMDb链接: tt2527336

星球大战8:最后的绝地武士的剧情简介 · · · · · ·
  《星球大战:最后的绝地武士》承接前作《星球大战:原力觉醒》的剧情,讲述第一军团全面侵袭之下,蕾伊(黛西·雷德利 Daisy Ridley 饰)、芬恩(约翰·博耶加 John Boyega 饰)、波·达默龙(奥斯卡·伊萨克 Oscar Isaac 饰)三位年轻主角各自的抉 择和冒险故事。前作中觉醒强大原力的蕾伊独自寻访隐居的绝地大师卢克·天行者(马克·哈米尔 Mark Hamill 饰),在后者的指导下接受原力训练。芬恩接受了一项几乎不可能完成的任务,为此他不得不勇闯敌营,面对自己的过去。波·达默龙则要适应从战士向领袖的角色转换,这一过程中他也将接受一些血的教训。

星球大战8:最后的绝地武士的获奖情况
第90届奥斯卡金像奖 最佳视觉效果(提名) 尼尔·斯坎伦 / 本·莫里斯 / 克里斯·考博德 / 迈克尔·马尔霍兰
第71届英国电影学院奖 电影奖 最佳特殊视觉效果(提名)
第22届美国艺术指导工会奖 电影奖 最佳幻想电影艺术指导(提名)

截图




Video
ID                                       : 1
Format                                   : AVC
Format/Info                              : Advanced Video Codec
Format profile                           : High@L4.1
Format settings                          : CABAC / 4 Ref Frames
Format settings, CABAC                   : Yes
Format settings, ReFrames                : 4 frames
Codec ID                                 : V_MPEG4/ISO/AVC
Duration                                 : 2 h 31 min
Bit rate mode                            : Variable
Bit rate                                 : 30.7 Mb/s
Maximum bit rate                         : 37.0 Mb/s
Width                                    : 1 920 pixels
Height                                   : 1 080 pixels
Display aspect ratio                     : 16:9
Frame rate mode                          : Constant
Frame rate                               : 23.976 (24000/1001) FPS
Color space                              : YUV
Chroma subsampling                       : 4:2:0
Bit depth                                : 8 bits
Scan type                                : Progressive
Bits/(Pixel*Frame)                       : 0.618
Stream size                              : 32.6 GiB (79%)
Title                                    : Star.Wars.The.Last.Jedi.2017.1080p.BluRay.REMUX.AVC.DTS-HD.MA.7.1-FGT
Language                                 : English
Default                                  : No
Forced                                   : No

Audio #1
ID                                       : 2
Format                                   : DTS
Format/Info                              : Digital Theater Systems
Format profile                           : MA / Core
Codec ID                                 : A_DTS
Duration                                 : 2 h 31 min
Bit rate mode                            : Variable / Constant
Bit rate                                 : 4 629 kb/s / 1 509 kb/s
Channel(s)                               : 8 channels / 6 channels
Channel positions                        : Front: L C R, Side: L R, Back: L R, LFE / Front: L C R, Side: L R, LFE
Sampling rate                            : 48.0 kHz
Frame rate                               : 93.750 FPS (512 SPF)
Bit depth                                : 24 bits
Compression mode                         : Lossless / Lossy
Stream size                              : 4.91 GiB (12%)
Title                                    : Star.Wars.The.Last.Jedi.2017.1080p.BluRay.REMUX.AVC.DTS-HD.MA.7.1-FGT
Language                                 : English
Default                                  : Yes
Forced                                   : No

Audio #2
ID                                       : 3
Format                                   : DTS
Format/Info                              : Digital Theater Systems
Codec ID                                 : A_DTS
Duration                                 : 2 h 31 min
Bit rate mode                            : Constant
Bit rate                                 : 1 509 kb/s
Channel(s)                               : 6 channels
Channel positions                        : Front: L C R, Side: L R, LFE
Sampling rate                            : 48.0 kHz
Frame rate                               : 93.750 FPS (512 SPF)
Bit depth                                : 24 bits
Compression mode                         : Lossy
Stream size                              : 1.60 GiB (4%)
Title                                    : Star.Wars.The.Last.Jedi.2017.1080p.BluRay.REMUX.AVC.DTS-HD.MA.7.1-FGT
Language                                 : English
Default                                  : No
Forced                                   : No

Audio #3
ID                                       : 4
Format                                   : AC-3
Format/Info                              : Audio Coding 3
Codec ID                                 : A_AC3
Duration                                 : 2 h 31 min
Bit rate mode                            : Constant
Bit rate                                 : 320 kb/s
Channel(s)                               : 2 channels
Channel positions                        : Front: L R
Sampling rate                            : 48.0 kHz
Frame rate                               : 31.250 FPS (1536 SPF)
Bit depth                                : 16 bits
Compression mode                         : Lossy
Stream size                              : 348 MiB (1%)
Title                                    : Star.Wars.The.Last.Jedi.2017.1080p.BluRay.REMUX.AVC.DTS-HD.MA.7.1-FGT
Language                                 : English
Service kind                             : Complete Main
Default                                  : No
Forced                                   : No

Audio #4
ID                                       : 5
Format                                   : AC-3
Format/Info                              : Audio Coding 3
Codec ID                                 : A_AC3
Duration                                 : 2 h 31 min
Bit rate mode                            : Constant
Bit rate                                 : 640 kb/s
Channel(s)                               : 6 channels
Channel positions                        : Front: L C R, Side: L R, LFE
Sampling rate                            : 48.0 kHz
Frame rate                               : 31.250 FPS (1536 SPF)
Bit depth                                : 16 bits
Compression mode                         : Lossy
Stream size                              : 695 MiB (2%)
Title                                    : Star.Wars.The.Last.Jedi.2017.1080p.BluRay.REMUX.AVC.DTS-HD.MA.7.1-FGT
Language                                 : French
Service kind                             : Complete Main
Default                                  : No
Forced                                   : No

Audio #5
ID                                       : 6
Format                                   : AC-3
Format/Info                              : Audio Coding 3
Codec ID                                 : A_AC3
Duration                                 : 2 h 31 min
Bit rate mode                            : Constant
Bit rate                                 : 640 kb/s
Channel(s)                               : 6 channels
Channel positions                        : Front: L C R, Side: L R, LFE
Sampling rate                            : 48.0 kHz
Frame rate                               : 31.250 FPS (1536 SPF)
Bit depth                                : 16 bits
Compression mode                         : Lossy
Stream size                              : 695 MiB (2%)
Title                                    : Star.Wars.The.Last.Jedi.2017.1080p.BluRay.REMUX.AVC.DTS-HD.MA.7.1-FGT
Language                                 : Spanish
Service kind                             : Complete Main
Default                                  : No
Forced                                   : No

Audio #6
ID                                       : 7
Format                                   : AC-3
Format/Info                              : Audio Coding 3
Codec ID                                 : A_AC3
Duration                                 : 2 h 31 min
Bit rate mode                            : Constant
Bit rate                                 : 192 kb/s
Channel(s)                               : 2 channels
Channel positions                        : Front: L R
Sampling rate                            : 48.0 kHz
Frame rate                               : 31.250 FPS (1536 SPF)
Bit depth                                : 16 bits
Compression mode                         : Lossy
Stream size                              : 209 MiB (0%)
Title                                    : Star.Wars.The.Last.Jedi.2017.1080p.BluRay.REMUX.AVC.DTS-HD.MA.7.1-FGT
Language                                 : English
Service kind                             : Complete Main
Default                                  : No
Forced                                   : No

Text #1
ID                                       : 8
Format                                   : PGS
Muxing mode                              : zlib
Codec ID                                 : S_HDMV/PGS
Codec ID/Info                            : Picture based subtitle format used on BDs/HD-DVDs
Duration                                 : 2 h 23 min
Bit rate                                 : 31.0 kb/s
Count of elements                        : 3796
Stream size                              : 31.8 MiB (0%)
Title                                    : English-PGS
Language                                 : English
Default                                  : Yes
Forced                                   : No

Text #2
ID                                       : 9
Format                                   : PGS
Muxing mode                              : zlib
Codec ID                                 : S_HDMV/PGS
Codec ID/Info                            : Picture based subtitle format used on BDs/HD-DVDs
Duration                                 : 2 h 25 min
Bit rate                                 : 25.8 kb/s
Count of elements                        : 3416
Stream size                              : 26.8 MiB (0%)
Title                                    : French-PGS
Language                                 : French
Default                                  : No
Forced                                   : No

Text #3
ID                                       : 10
Format                                   : PGS
Muxing mode                              : zlib
Codec ID                                 : S_HDMV/PGS
Codec ID/Info                            : Picture based subtitle format used on BDs/HD-DVDs
Duration                                 : 2 h 22 min
Bit rate                                 : 25.7 kb/s
Count of elements                        : 3182
Stream size                              : 26.2 MiB (0%)
Title                                    : Spanish-PGS
Language                                 : Spanish
Default                                  : No
Forced                                   : No

Text #4
ID                                       : 11
Format                                   : PGS
Muxing mode                              : zlib
Codec ID                                 : S_HDMV/PGS
Codec ID/Info                            : Picture based subtitle format used on BDs/HD-DVDs
Duration                                 : 2 h 24 min
Bit rate                                 : 70.6 kb/s
Count of elements                        : 4798
Stream size                              : 72.8 MiB (0%)
Title                                    : English-COMMENTARY-PGS
Language                                 : English
Default                                  : No
Forced                                   : No

Text #5
ID                                       : 12
Format                                   : PGS
Muxing mode                              : zlib
Codec ID                                 : S_HDMV/PGS
Codec ID/Info                            : Picture based subtitle format used on BDs/HD-DVDs
Duration                                 : 2 h 24 min
Bit rate                                 : 58.1 kb/s
Count of elements                        : 4758
Stream size                              : 59.9 MiB (0%)
Title                                    : French-COMMENTARY-PGS
Language                                 : French
Default                                  : No
Forced                                   : No

Text #6
ID                                       : 13
Format                                   : PGS
Muxing mode                              : zlib
Codec ID                                 : S_HDMV/PGS
Codec ID/Info                            : Picture based subtitle format used on BDs/HD-DVDs
Duration                                 : 2 h 24 min
Bit rate                                 : 59.7 kb/s
Count of elements                        : 4758
Stream size                              : 61.6 MiB (0%)
Title                                    : Spanish-COMMENTARY-PGS
Language                                 : Spanish
Default                                  : No
Forced                                   : No

Text #7
ID                                       : 14
Format                                   : PGS
Muxing mode                              : zlib
Codec ID                                 : S_HDMV/PGS
Codec ID/Info                            : Picture based subtitle format used on BDs/HD-DVDs
Duration                                 : 2 h 25 min
Bit rate                                 : 252 b/s
Count of elements                        : 44
Stream size                              : 269 KiB (0%)
Title                                    : French-FORCED-PGS
Language                                 : French
Default                                  : No
Forced                                   : No

Menu
00:00:00.000                             : en:Chapter 01
00:00:18.643                             : en:Chapter 02
00:01:45.730                             : en:Chapter 03
00:03:11.816                             : en:Chapter 04
00:07:43.296                             : en:Chapter 05
00:12:48.434                             : en:Chapter 06
00:13:44.573                             : en:Chapter 07
00:16:29.279                             : en:Chapter 08
00:19:59.281                             : en:Chapter 09
00:22:51.370                             : en:Chapter 10
00:26:04.980                             : en:Chapter 11
00:27:22.515                             : en:Chapter 12
00:31:24.757                             : en:Chapter 13
00:32:54.681                             : en:Chapter 14
00:35:27.667                             : en:Chapter 15
00:38:11.497                             : en:Chapter 16
00:41:53.427                             : en:Chapter 17
00:44:29.541                             : en:Chapter 18
00:46:51.475                             : en:Chapter 19
00:51:41.932                             : en:Chapter 20
00:53:50.060                             : en:Chapter 21
00:55:41.504                             : en:Chapter 22
00:57:39.581                             : en:Chapter 23
00:59:16.636                             : en:Chapter 24
01:02:05.847                             : en:Chapter 25
01:03:07.700                             : en:Chapter 26
01:05:41.729                             : en:Chapter 27
01:07:03.477                             : en:Chapter 28
01:10:25.721                             : en:Chapter 29
01:13:30.322                             : en:Chapter 30
01:17:43.450                             : en:Chapter 31
01:20:53.056                             : en:Chapter 32
01:24:17.969                             : en:Chapter 33
01:26:23.219                             : en:Chapter 34
01:27:59.524                             : en:Chapter 35
01:30:49.360                             : en:Chapter 36
01:32:54.569                             : en:Chapter 37
01:35:53.706                             : en:Chapter 38
01:37:10.616                             : en:Chapter 39
01:39:12.863                             : en:Chapter 40
01:42:07.663                             : en:Chapter 41
01:45:03.714                             : en:Chapter 42
01:49:35.694                             : en:Chapter 43
01:52:20.608                             : en:Chapter 44
01:56:04.749                             : en:Chapter 45
01:58:52.083                             : en:Chapter 46
02:03:11.133                             : en:Chapter 47
02:06:39.758                             : en:Chapter 48
02:11:43.604                             : en:Chapter 49
02:15:12.104                             : en:Chapter 50
02:20:16.699                             : en:Chapter 51
02:23:39.694                             : en:Chapter 52

Star.Wars.The.Last.Jedi.2017.1080p.BluRay.REMUX.AVC.DTS-HD.MA.7.1.torrent

103.25 KB, 下载次数: 132

QQ电影交流群: 498117193
您需要登录后才可以回帖 登录 | 注册

本版积分规则

BT探索

GMT+8, 2018-9-25 18:41

Powered by Discuz! X3.2

© 2001-2013 Comsenz Inc.

快速回复 返回顶部 返回列表