BT探索

 找回密码
 注册
查看: 353|回复: 0

[1080p] 燃眉追击.Clear.and.Present.Danger.1994.1080p.BluRay.x264.DTS-FGT.10.37 GB

[复制链接]

3万

主题

4万

帖子

14万

影币

管理员

Rank: 8Rank: 8Rank: 8Rank: 8Rank: 8Rank: 8Rank: 8Rank: 8

积分
144425
注册时间
2010-9-1
最后登录
2018-12-16

Medal No.1Medal No.2Medal No.3Medal No.4Medal No.5Medal No.6Medal No.7Medal No.8Medal No.9Medal No.10

发表于 2018-3-14 12:48:03 | 显示全部楼层 |阅读模式
海报


导演: 菲利普·诺伊斯
编剧: 唐纳德·斯图尔特 / 斯蒂文·泽里安 / 约翰·米利厄斯
主演: 哈里森·福特 / 威廉·达福 / 安妮·阿彻 / 乔昆姆·德·阿尔梅达 / 亨利·科泽尼 / 本杰明·布拉特
类型: 剧情 / 动作 / 惊悚
制片国家/地区: 美国
语言: 英语
上映日期: 1994-08-03
片长: 141 分钟
又名: 迫切的危机(台) / 杰克·赖恩“追击三部曲”之三燃眉追击
IMDb链接: tt0109444

燃眉追击的剧情简介 · · · · · ·
  美国中情局干员杰克·雷恩(哈里森·福特 Harrison Ford 饰)再次卷入一场错综复杂的贩毒战争之中。因前任陆军上将罹患癌症,雷恩被任命为CIA副局长一职,奉命调查美国总统友人遭毒贩谋杀事件。总统好友及其家人在睡梦中惨遭贩毒集团毒害,为查明真相,雷恩开始追查。然而,雷恩发现其好友居然与哥伦比亚贩毒团有染,不仅如此,总统也派出了一支秘密突击小组对付毒贩集团,并已前往消灭贩毒集团。不明真相的雷恩,不仅置身于利益纷争的国际政治阴谋之中,更陷入敌友难辨的两难之境。事态演变得愈发扑朔迷离,被蒙在鼓里的雷恩势要以身试险,一探究竟。
  本片根据汤姆·克兰西的畅销小说改编而成,是《爱国者游戏》的续集。

燃眉追击的获奖情况
第67届奥斯卡金像奖 最佳音效剪辑(提名) Bruce Stambler / John Leveque
第67届奥斯卡金像奖 最佳音响(提名) Art Rochester / 弗兰克·A·蒙塔诺

截图




Video
ID                                       : 1
Format                                   : AVC
Format/Info                              : Advanced Video Codec
Format profile                           : High@L5.1
Format settings, CABAC                   : Yes
Format settings, ReFrames                : 8 frames
Codec ID                                 : V_MPEG4/ISO/AVC
Duration                                 : 2h 21mn
Bit rate                                 : 9 000 Kbps
Width                                    : 1 920 pixels
Height                                   : 816 pixels
Display aspect ratio                     : 2.35:1
Frame rate mode                          : Constant
Frame rate                               : 23.976 (23976/1000) fps
Color space                              : YUV
Chroma subsampling                       : 4:2:0
Bit depth                                : 8 bits
Scan type                                : Progressive
Bits/(Pixel*Frame)                       : 0.240
Stream size                              : 8.68 GiB (84%)
Writing library                          : x264 core 57 svn-709C
Encoding settings                        : cabac=1 / ref=5 / deblock=1:-3:-3 / analyse=0x3:0x133 / me=umh / fpel_cmp=sad / subme=7 / me-prepass=1 / brdo=1 / mixed_ref=1 / me_range=16 / chroma_me=1 / trellis=0 / 8x8dct=1 / cqm=2 / deadzone=6,6 / chroma_qp_offset=0 / threads=6 / nr=0 / decimate=0 / mbaff=0 / bframes=4 / b_pyramid=1 / b_adapt=1 / b_bias=0 / direct=3 / wpredb=1 / bime=1 / keyint=250 / keyint_min=25 / scenecut=40(pre) / rc=2pass / bitrate=9000 / ratetol=1.0 / rceq=\'blurCplx^(1-qComp)\' / qcomp=0.60 / qpmin=10 / qpmax=51 / qpstep=4 / cplxblur=20.0 / qblur=0.5 / ip_ratio=1.40 / pb_ratio=1.30 / aq=1:0.3:15.0
Language                                 : English
Default                                  : Yes
Forced                                   : No

Audio
ID                                       : 2
Format                                   : DTS
Format/Info                              : Digital Theater Systems
Mode                                     : 16
Format settings, Endianness              : Big
Codec ID                                 : A_DTS
Duration                                 : 2h 21mn
Bit rate mode                            : Constant
Bit rate                                 : 1 510 Kbps
Channel(s)                               : 6 channels
Channel positions                        : Front: L C R, Side: L R, LFE
Sampling rate                            : 48.0 KHz
Frame rate                               : 93.750 fps (512 spf)
Bit depth                                : 24 bits
Compression mode                         : Lossy
Stream size                              : 1.49 GiB (14%)
Language                                 : English
Default                                  : No
Forced                                   : No

Text
ID                                       : 3
Format                                   : UTF-8
Codec ID                                 : S_TEXT/UTF8
Codec ID/Info                            : UTF-8 Plain Text
Language                                 : English
Default                                  : Yes
Forced                                   : No


Clear.and.Present.Danger.1994.1080p.BluRay.x264.DTS.torrent

52.5 KB, 下载次数: 40

QQ电影交流群: 498117193
您需要登录后才可以回帖 登录 | 注册

本版积分规则

BT探索

GMT+8, 2018-12-16 11:27

Powered by Discuz! X3.2

© 2001-2013 Comsenz Inc.

快速回复 返回顶部 返回列表