BT探索

 找回密码
 注册
查看: 388|回复: 0

[1080p] K-19:寡妇制造者.K-19.The.Widowmaker.2002.1080p.BluRay.x264.DTS-FGT.13.03 GB

[复制链接]

3万

主题

4万

帖子

14万

影币

管理员

Rank: 8Rank: 8Rank: 8Rank: 8Rank: 8Rank: 8Rank: 8Rank: 8

积分
144425
注册时间
2010-9-1
最后登录
2018-12-16

Medal No.1Medal No.2Medal No.3Medal No.4Medal No.5Medal No.6Medal No.7Medal No.8Medal No.9Medal No.10

发表于 2018-3-14 13:06:31 | 显示全部楼层 |阅读模式
海报


导演: 凯瑟琳·毕格罗
编剧: Christopher Kyle
主演: 哈里森·福特 / 连姆·尼森 / Sam Spruell / 克里斯蒂安·卡玛戈 / 约翰·斯拉普内尔
类型: 剧情 / 惊悚 / 历史
官方网站: http://www.k19movie.com/
制片国家/地区: 英国 / 德国 / 美国 / 加拿大
语言: 英语 / 俄语
上映日期: 2002-07-19
片长: 138 分钟
又名: 轰天潜舰 / 哈里逊福特K19
IMDb链接: tt0267626

K-19:寡妇制造者的剧情简介 · · · · · ·
  影片是根据真人真事改编的,K19是苏联第一艘战略核潜艇。
  影片导演凯瑟琳·毕格罗是首位奥斯卡最佳女导演奖获得者。
  亚里克西(哈里森·福特 Harrison Ford 饰)船长,在冷战最为紧张的时刻接到命令接替原船长米克黑尔( 连姆·尼森 Liam Neeson 饰)出任核动力导弹潜艇K-19的指挥官。亚里克西的任务是不惜一切代价,尽快将这艘维护不当的潜艇投入作战戒备,执行其处女航行。但是两人和全艇忠诚的官兵们压根也没想到他们会去执行什么任务。他们也无法料想到失败的代价对于他们以及全世界会意味着什么。那时,一个核反应堆发生故障,一个危险的燃料棒即将溶融、发生核爆炸,这将肯定使艇上所有人员葬身海底。当时他们在北冰洋底游弋,是全体船员们的勇敢,以及船长对国家和对船员们的职责感最终挽救了K-19,避免了一场即将发生的核灾难。

截图





Video
ID                                       : 1
Format                                   : AVC
Format/Info                              : Advanced Video Codec
Format profile                           : High@L4.1
Format settings, CABAC                   : Yes
Format settings, ReFrames                : 5 frames
Codec ID                                 : V_MPEG4/ISO/AVC
Duration                                 : 2h 18mn
Bit rate                                 : 12.0 Mbps
Width                                    : 1 920 pixels
Height                                   : 814 pixels
Display aspect ratio                     : 2.35:1
Frame rate mode                          : Constant
Frame rate                               : 23.976 fps
Color space                              : YUV
Chroma subsampling                       : 4:2:0
Bit depth                                : 8 bits
Scan type                                : Progressive
Bits/(Pixel*Frame)                       : 0.321
Stream size                              : 11.3 GiB (87%)
Writing library                          : x264 core 88 r1471 1144615
Encoding settings                        : cabac=1 / ref=5 / deblock=1:-3:-3 / analyse=0x3:0x113 / me=umh / subme=9 / psy=1 / psy_rd=1.05:0.10 / mixed_ref=1 / me_range=32 / chroma_me=1 / trellis=2 / 8x8dct=1 / cqm=2 / deadzone=21,11 / fast_pskip=0 / chroma_qp_offset=-2 / threads=12 / sliced_threads=0 / nr=0 / decimate=1 / mbaff=0 / constrained_intra=0 / bframes=3 / b_pyramid=2 / b_adapt=2 / b_bias=0 / direct=3 / wpredb=1 / wpredp=2 / keyint=250 / keyint_min=25 / scenecut=40 / intra_refresh=0 / rc_lookahead=50 / rc=2pass / mbtree=1 / bitrate=12020 / ratetol=2.0 / qcomp=0.70 / qpmin=10 / qpmax=51 / qpstep=4 / cplxblur=20.0 / qblur=0.5 / vbv_maxrate=50000 / vbv_bufsize=50000 / ip_ratio=1.40 / aq=1:1.00
Language                                 : English
Default                                  : Yes
Forced                                   : No

Audio
ID                                       : 2
Format                                   : DTS
Format/Info                              : Digital Theater Systems
Mode                                     : 16
Format settings, Endianness              : Big
Codec ID                                 : A_DTS
Duration                                 : 2h 18mn
Bit rate mode                            : Constant
Bit rate                                 : 1 509 Kbps
Channel(s)                               : 6 channels
Channel positions                        : Front: L C R, Side: L R, LFE
Sampling rate                            : 48.0 KHz
Frame rate                               : 93.750 fps (512 spf)
Bit depth                                : 24 bits
Compression mode                         : Lossy
Stream size                              : 1.46 GiB (11%)
Language                                 : English
Default                                  : Yes
Forced                                   : No

Text
ID                                       : 3
Format                                   : UTF-8
Codec ID                                 : S_TEXT/UTF8
Codec ID/Info                            : UTF-8 Plain Text
Language                                 : English
Default                                  : No
Forced                                   : No



K-19.The.Widowmaker.2002.1080p.BluRay.x264.DTS.torrent

65.77 KB, 下载次数: 93

QQ电影交流群: 498117193
您需要登录后才可以回帖 登录 | 注册

本版积分规则

BT探索

GMT+8, 2018-12-16 11:48

Powered by Discuz! X3.2

© 2001-2013 Comsenz Inc.

快速回复 返回顶部 返回列表