BT探索

 找回密码
 注册
查看: 225|回复: 1

[欧美] 国家宝藏.National.Treasure.2004.1080p.BluRay.x264.DTS-FGT.13.12 GB

[复制链接]

3万

主题

4万

帖子

13万

影币

管理员

Rank: 8Rank: 8Rank: 8Rank: 8Rank: 8Rank: 8Rank: 8Rank: 8

积分
133570
注册时间
2010-9-1
最后登录
2018-9-25

Medal No.1Medal No.2Medal No.3Medal No.4Medal No.5Medal No.6Medal No.7Medal No.8Medal No.9Medal No.10

发表于 2018-3-14 13:10:13 | 显示全部楼层 |阅读模式
海报


导演: 乔·德特杜巴
编剧: 吉姆·科夫 / 科马克·韦伯利 / 玛丽安·韦伯利 / Oren Aviv / Charles Segars / Charles Segars
主演: 尼古拉斯·凯奇 / 黛安·克鲁格 / 贾斯汀·巴萨 / 肖恩·宾 / 强·沃特 / 哈威·凯特尔 / 克里斯托弗·普卢默 / 大卫·达耶·费舍尔 / Stewart Finlay-McLennan / 欧勒格·塔克塔罗夫 / Stephen A. Pope / 安妮·帕里西 / 马克·佩雷格里诺 / 阿曼德·里斯科 / 埃里克·金
类型: 动作 / 悬疑 / 惊悚 / 冒险
制片国家/地区: 美国
语言: 英语 / 西班牙语
上映日期: 2004-11-19(美国)
片长: 131 分钟
又名: 惊天夺宝(港) / 国家财宝
IMDb链接: tt0368891

国家宝藏的剧情简介 · · · · · ·
  盖茨家族是出名的冒险家家族。本(尼古拉斯•凯奇 Nicolas Cage 饰)小时候就获悉了他们家族的一个惊天秘密:美国开国时埋藏国家财富的地点就藏在《独立宣言》中。尽管父亲不想盖茨家族在纠缠于国家宝藏,但本还是与电脑高手雷利(贾斯汀•巴萨 Justin Bartha 饰)一起开始了寻宝行动。
  本的寻宝计划很快陷入了僵局。与此同时,英国富豪伊恩(肖恩•宾 Sean Bean 饰)也盯上了这个宝藏,他派人潜入了美国国家图书找寻《独立宣言》中宝藏的秘密并密谋对付本。图书馆的艾比嘉尔博士(戴安•克鲁格 Diane Kruger 饰)获悉了伊恩的险恶用心后,决心帮助本找到国家宝藏……

截图





Video
ID                                       : 1
Format                                   : AVC
Format/Info                              : Advanced Video Codec
Format profile                           : High@L4.1
Format settings, CABAC                   : Yes
Format settings, ReFrames                : 5 frames
Codec ID                                 : V_MPEG4/ISO/AVC
Duration                                 : 2h 11mn
Bit rate                                 : 12.5 Mbps
Width                                    : 1 920 pixels
Height                                   : 800 pixels
Display aspect ratio                     : 2.40:1
Frame rate mode                          : Constant
Frame rate                               : 23.976 fps
Color space                              : YUV
Chroma subsampling                       : 4:2:0
Bit depth                                : 8 bits
Scan type                                : Progressive
Bits/(Pixel*Frame)                       : 0.340
Stream size                              : 11.5 GiB (87%)
Writing library                          : x264 core 129 hdclub.org      
Encoding settings                        : cabac=1 / ref=5 / deblock=1:-3:-3 / analyse=0x3:0x113 / me=umh / subme=11 / psy=1 / fade_compensate=0.00 / psy_rd=1.00:0.00 / mixed_ref=1 / me_range=48 / chroma_me=1 / trellis=2 / 8x8dct=1 / cqm=0 / deadzone=21,11 / fast_pskip=1 / chroma_qp_offset=-2 / threads=12 / lookahead_threads=2 / sliced_threads=0 / nr=0 / decimate=1 / interlaced=0 / bluray_compat=0 / constrained_intra=0 / bframes=9 / b_pyramid=2 / b_adapt=2 / b_bias=0 / direct=3 / weightb=1 / open_gop=0 / weightp=2 / keyint=250 / keyint_min=23 / scenecut=40 / intra_refresh=0 / rc_lookahead=40 / rc=crf / mbtree=0 / crf=18.0000 / qcomp=0.60 / qpmin=0 / qpmax=69 / qpstep=4 / vbv_maxrate=50000 / vbv_bufsize=62500 / crf_max=0.0 / nal_hrd=none / ip_ratio=1.40 / pb_ratio=1.30 / aq=1:0.85
Language                                 : English
Default                                  : Yes
Forced                                   : No
Color range                              : Limited
Matrix coefficients                      : BT.709

Audio
ID                                       : 2
Format                                   : DTS
Format/Info                              : Digital Theater Systems
Mode                                     : 16
Format settings, Endianness              : Big
Codec ID                                 : A_DTS
Duration                                 : 2h 11mn
Bit rate mode                            : Constant
Bit rate                                 : 1 510 Kbps
Channel(s)                               : 6 channels
Channel positions                        : Front: L C R, Side: L R, LFE
Sampling rate                            : 48.0 KHz
Bit depth                                : 16 bits
Compression mode                         : Lossy
Stream size                              : 1.38 GiB (11%)
Language                                 : English
Default                                  : Yes
Forced                                   : No

Text
ID                                       : 3
Format                                   : UTF-8
Codec ID                                 : S_TEXT/UTF8
Codec ID/Info                            : UTF-8 Plain Text
Language                                 : English
Default                                  : No
Forced                                   : No

Menu
00:00:00.000                             : en:The Legend of the Treasure
00:06:36.229                             : en:The Charlotte
00:22:20.338                             : en:Meeting with Dr. Chase
00:28:49.268                             : en:Making a Plan
00:31:15.290                             : en:The Setup
00:35:44.516                             : en:The Gala
00:45:52.666                             : en:Getting Found Out
00:54:27.973                             : en:We Need Those Letters
01:01:07.705                             : en:Examining the Document
01:16:54.609                             : en:The Ocular Device
01:24:06.457                             : en:Ian Has the Map
01:28:21.671                             : en:The Uss Intrepid
01:34:20.821                             : en:Making a Deal with Ian
01:38:31.988                             : en:Beneath Parkington Lane
01:49:42.576                             : en:Ian Leaves Them Behind
01:53:26.381                             : en:Could It Really Be That Simple?
01:57:22.452                             : en:Somebody Has to Go to Prison
02:01:43.379                             : en:End Credits



National.Treasure.2004.1080p.BluRay.x264.DTS.torrent

66.22 KB, 下载次数: 28

QQ电影交流群: 498117193

0

主题

371

帖子

280

影币

龙套

Rank: 3Rank: 3Rank: 3

积分
280
注册时间
2011-8-25
最后登录
2018-9-25
发表于 2018-3-14 13:30:02 | 显示全部楼层
楼主发片辛苦啦,楼主的大恩不言谢
QQ电影交流群: 498117193
您需要登录后才可以回帖 登录 | 注册

本版积分规则

BT探索

GMT+8, 2018-9-25 19:30

Powered by Discuz! X3.2

© 2001-2013 Comsenz Inc.

快速回复 返回顶部 返回列表