BT探索

 找回密码
 注册
查看: 229|回复: 1

[欧美] 国家宝藏:夺宝秘笈.2007.1080p.BluRay.x264.DTS-FGT.12.98 GB

[复制链接]

3万

主题

4万

帖子

13万

影币

管理员

Rank: 8Rank: 8Rank: 8Rank: 8Rank: 8Rank: 8Rank: 8Rank: 8

积分
133320
注册时间
2010-9-1
最后登录
2018-9-24

Medal No.1Medal No.2Medal No.3Medal No.4Medal No.5Medal No.6Medal No.7Medal No.8Medal No.9Medal No.10

发表于 2018-3-14 13:13:09 | 显示全部楼层 |阅读模式
海报


导演: 乔·德特杜巴
编剧: 玛丽安·韦伯利 / 科马克·韦伯利
主演: 尼古拉斯·凯奇 / 贾斯汀·巴萨 / 黛安·克鲁格 / 强·沃特 / 海伦·米伦 / 艾德·哈里斯 / 哈威·凯特尔 / 布鲁斯·格林伍德
类型: 喜剧 / 动作 / 悬疑 / 惊悚 / 冒险
制片国家/地区: 美国
语言: 英语 / 法语
上映日期: 2007-12-21(美国)
片长: 124 分钟
又名: 国家宝藏:古籍秘辛(港) / 惊天夺宝:世纪秘册(台) / 国家宝藏2:秘密之书 / 国家宝藏2
IMDb链接: tt0465234

国家宝藏:夺宝秘笈的剧情简介 · · · · · ·
  冒险家本•盖茨(尼古拉斯•凯奇饰)是次要挑战更艰难的探险寻宝之旅。美国第16任总统亚伯拉罕• 林肯之死一直是美国历史上的一宗悬案,据调查,凶手约翰•沃克斯•布斯实际是受人唆使犯下惊天命案。盖茨参加一次公开演讲,台下的一位叫米奇•威尔金森(艾德•哈里斯饰)的男子宣称,盖茨的祖父与林肯之死有千丝万缕的联系。于是盖茨开始调查约翰•布斯相关的线索,发现一本叫“国家密宗”的书,是解答一切问题的关键。但国家密宗只有美国总统本人知道其所在,为了探寻真相,盖茨不惜铤而走险,绑架总统。

国家宝藏:夺宝秘笈的获奖情况
第17届MTV电影奖 MTV电影奖 年度电影(提名)

截图




Video
ID                                       : 1
Format                                   : AVC
Format/Info                              : Advanced Video Codec
Format profile                           : High@L4.1
Format settings, CABAC                   : Yes
Format settings, ReFrames                : 5 frames
Codec ID                                 : V_MPEG4/ISO/AVC
Duration                                 : 2h 4mn
Bit rate                                 : 13.1 Mbps
Width                                    : 1 920 pixels
Height                                   : 800 pixels
Display aspect ratio                     : 2.40:1
Frame rate mode                          : Constant
Frame rate                               : 23.976 fps
Color space                              : YUV
Chroma subsampling                       : 4:2:0
Bit depth                                : 8 bits
Scan type                                : Progressive
Bits/(Pixel*Frame)                       : 0.356
Stream size                              : 11.4 GiB (88%)
Writing library                          : x264 core 130 r2273kMod b3065e6
Encoding settings                        : cabac=1 / ref=5 / deblock=1:-3:-3 / analyse=0x3:0x113 / me=umh / subme=11 / psy=1 / fade_compensate=0.00 / psy_rd=1.00:0.00 / mixed_ref=1 / me_range=48 / chroma_me=1 / trellis=2 / 8x8dct=1 / cqm=0 / deadzone=21,11 / fast_pskip=1 / chroma_qp_offset=-2 / threads=12 / lookahead_threads=3 / sliced_threads=0 / nr=0 / decimate=1 / interlaced=0 / bluray_compat=0 / constrained_intra=0 / bframes=10 / b_pyramid=2 / b_adapt=2 / b_bias=0 / direct=3 / weightb=1 / open_gop=0 / weightp=2 / keyint=250 / keyint_min=23 / scenecut=40 / intra_refresh=0 / rc_lookahead=40 / rc=crf / mbtree=0 / crf=18.0000 / qcomp=0.65 / qpmin=0 / qpmax=69 / qpstep=4 / vbv_maxrate=50000 / vbv_bufsize=62500 / crf_max=0.0 / nal_hrd=none / ip_ratio=1.40 / pb_ratio=1.30 / aq=1:0.80
Language                                 : English
Default                                  : Yes
Forced                                   : No
Color range                              : Limited
Matrix coefficients                      : BT.709

Audio
ID                                       : 2
Format                                   : DTS
Format/Info                              : Digital Theater Systems
Mode                                     : 16
Format settings, Endianness              : Big
Codec ID                                 : A_DTS
Duration                                 : 2h 4mn
Bit rate mode                            : Constant
Bit rate                                 : 1 509 Kbps
Channel(s)                               : 6 channels
Channel positions                        : Front: L C R, Side: L R, LFE
Sampling rate                            : 48.0 KHz
Bit depth                                : 24 bits
Compression mode                         : Lossy
Stream size                              : 1.31 GiB (10%)
Language                                 : English
Default                                  : Yes
Forced                                   : No

Text
ID                                       : 3
Format                                   : UTF-8
Codec ID                                 : S_TEXT/UTF8
Codec ID/Info                            : UTF-8 Plain Text
Language                                 : English
Default                                  : No
Forced                                   : No

Menu
00:00:00.000                             : en:The War Is Over
00:04:59.340                             : en:The Missing Page
00:08:27.214                             : en:Breaking In
00:16:55.723                             : en:The Debt That All Men Pay
00:22:01.945                             : en:The Lady\'s Clue
00:26:03.395                             : en:Making a Scene at the Palace
00:36:47.038                             : en:The Streets of London
00:43:02.913                             : en:Meeting Dr. Appleton
00:50:14.010                             : en:A Date at the White House
00:55:27.907                             : en:Riley\'s Theory
01:00:01.389                             : en:Happy Birthday, Mr. President
01:11:22.987                             : en:The Book of Secrets
01:20:14.017                             : en:Another Translation
01:24:42.744                             : en:An Island of Stone
01:30:41.269                             : en:Only One Way Out
01:40:07.334                             : en:The City of Gold
01:47:17.889                             : en:Escaping Cibola
01:57:20.533                             : en:End Credits




National.Treasure.Book.of.Secrets.2007.1080p.BluRay.x264.DTS.torrent

65.55 KB, 下载次数: 51

QQ电影交流群: 498117193

0

主题

363

帖子

272

影币

龙套

Rank: 3Rank: 3Rank: 3

积分
272
注册时间
2011-8-25
最后登录
2018-9-24
发表于 2018-3-14 13:28:54 | 显示全部楼层
感谢楼主分享好看的电影
QQ电影交流群: 498117193
您需要登录后才可以回帖 登录 | 注册

本版积分规则

BT探索

GMT+8, 2018-9-24 18:29

Powered by Discuz! X3.2

© 2001-2013 Comsenz Inc.

快速回复 返回顶部 返回列表