BT探索

 找回密码
 注册
搜索
查看: 179|回复: 0

[欧美] 幻影计划.Phantom.2013.1080p.BluRay.x264-iNFAMOUS.6.55 GB

[复制链接]

3万

主题

4万

帖子

12万

影币

管理员

Rank: 8Rank: 8Rank: 8Rank: 8Rank: 8Rank: 8Rank: 8Rank: 8

积分
120834
注册时间
2010-9-1
最后登录
2018-6-18

Medal No.1Medal No.2Medal No.3Medal No.4Medal No.5Medal No.6Medal No.7Medal No.8Medal No.9Medal No.10

发表于 2018-3-14 13:16:07 | 显示全部楼层 |阅读模式
海报


导演: 托德·罗宾森
编剧: 托德·罗宾森
主演: 艾德·哈里斯 / 大卫·杜楚尼 / 威廉·菲德内尔 / 肖恩·派特里克·弗兰纳里 / 兰斯·亨利克森 / 乔纳森·斯卡奇 / 达格玛拉·多敏齐克 / 杰森·贝吉 / 德里克·迈戈雅 / 贾森·加里-斯坦福德 / 马特·布谢尔
类型: 惊悚
官方网站: www.phantomthefilm.com
制片国家/地区: 美国
语言: 英语
上映日期: 2013-03-01(美国)
片长: 98分钟
IMDb链接: tt1922685

幻影计划的剧情简介 · · · · · ·
  二次世界大战的冷战期间,古巴危机将美苏两大强国剑拔弩张,而发生在1968年5月的一起事件则无疑将危机推向一触即发的境地。刚刚结束漫长航行并原本准备退休的海军舰长迪米(艾德·哈里斯 Ed Harris 饰),被上司命令即刻做最后一次巡航,而他所需要驾驶的则是即将在退役后卖给中国的弹道导弹潜艇B-67。在航行期间,来自克格勃的布鲁尼(大卫·杜楚尼 David Duchovny 饰)也一同随行,并在潜艇上测试一种全新的设备。
  迪米原以为这只是退休前的纪念之旅,却不知道布鲁尼及其神秘的“幻影计划”将潜艇官兵乃至全世界的命运系于一线。当他发现个中蹊跷之时,似乎为时已晚……

截图








Video
ID                                       : 1
Format                                   : AVC
Format/Info                              : Advanced Video Codec
Format profile                           : High@L4
Format settings, CABAC                   : Yes
Format settings, ReFrames                : 5 frames
Codec ID                                 : V_MPEG4/ISO/AVC
Duration                                 : 1h 38mn
Bit rate                                 : 8 021 Kbps
Width                                    : 1 920 pixels
Height                                   : 816 pixels
Display aspect ratio                     : 2.35:1
Frame rate mode                          : Constant
Frame rate                               : 23.976 fps
Color space                              : YUV
Chroma subsampling                       : 4:2:0
Bit depth                                : 8 bits
Scan type                                : Progressive
Bits/(Pixel*Frame)                       : 0.214
Stream size                              : 5.38 GiB (82%)
Title                                    : Video
Writing library                          : x264 core 133 r2334 a3ac64b
Encoding settings                        : cabac=1 / ref=5 / deblock=1:0:0 / analyse=0x3:0x133 / me=umh / subme=7 / psy=1 / psy_rd=1.00:0.00 / mixed_ref=1 / me_range=16 / chroma_me=1 / trellis=1 / 8x8dct=1 / cqm=0 / deadzone=21,11 / fast_pskip=0 / chroma_qp_offset=-2 / threads=12 / lookahead_threads=2 / sliced_threads=0 / nr=0 / decimate=1 / interlaced=0 / bluray_compat=0 / constrained_intra=0 / bframes=3 / b_pyramid=2 / b_adapt=2 / b_bias=0 / direct=3 / weightb=1 / open_gop=0 / weightp=2 / keyint=250 / keyint_min=23 / scenecut=40 / intra_refresh=0 / rc_lookahead=50 / rc=2pass / mbtree=1 / bitrate=8021 / ratetol=1.0 / qcomp=0.60 / qpmin=0 / qpmax=69 / qpstep=4 / cplxblur=20.0 / qblur=0.5 / ip_ratio=1.40 / aq=1:1.00
Language                                 : English
Default                                  : Yes
Forced                                   : Yes

Audio
ID                                       : 2
Format                                   : DTS
Format/Info                              : Digital Theater Systems
Mode                                     : 16
Format settings, Endianness              : Big
Codec ID                                 : A_DTS
Duration                                 : 1h 38mn
Bit rate mode                            : Constant
Bit rate                                 : 1 509 Kbps
Channel(s)                               : 6 channels
Channel positions                        : Front: L C R, Side: L R, LFE
Sampling rate                            : 48.0 KHz
Frame rate                               : 93.750 fps (512 spf)
Bit depth                                : 24 bits
Compression mode                         : Lossy
Stream size                              : 1.04 GiB (16%)
Title                                    : English Audio
Language                                 : English
Default                                  : Yes
Forced                                   : Yes

Text
ID                                       : 3
Format                                   : UTF-8
Codec ID                                 : S_TEXT/UTF8
Codec ID/Info                            : UTF-8 Plain Text
Title                                    : English Subtitles
Language                                 : English
Default                                  : No
Forced                                   : No


Phantom.2013.1080p.BluRay.x264.torrent

66.06 KB, 下载次数: 39

电影交流QQ群: 498117193
您需要登录后才可以回帖 登录 | 注册

本版积分规则

小黑屋|手机版|BT探索

GMT+8, 2018-6-19 04:37

Powered by Discuz! X3.2

© 2001-2013 Comsenz Inc.

快速回复 返回顶部 返回列表