BT探索

 找回密码
 注册
查看: 590|回复: 0

[1080p] 猎杀红色十月.The.Hunt.for.Red.October.1990.1080p.BluRay.x264.DTS-FGT.12.92 GB

[复制链接]

3万

主题

4万

帖子

14万

影币

管理员

Rank: 8Rank: 8Rank: 8Rank: 8Rank: 8Rank: 8Rank: 8Rank: 8

积分
144748
注册时间
2010-9-1
最后登录
2018-12-18

Medal No.1Medal No.2Medal No.3Medal No.4Medal No.5Medal No.6Medal No.7Medal No.8Medal No.9Medal No.10

发表于 2018-3-14 13:18:53 | 显示全部楼层 |阅读模式
海报


导演: 约翰·麦克蒂尔南
编剧: 拉里·弗格森 / 唐纳德·斯图尔特 / 汤姆·克兰西
主演: 肖恩·康纳利 / 亚历克·鲍德温 / 斯科特·格伦 / 山姆·尼尔 / 詹姆斯·厄尔·琼斯
类型: 动作 / 惊悚 / 冒险
制片国家/地区: 美国
语言: 英语 / 俄语
上映日期: 1990-03-02
片长: 134 分钟
又名: 追击赤色十月 / 猎杀红十月号 / 杰克·赖恩“追击三部曲”之一猎杀红色十月
IMDb链接: tt0099810

猎杀红色十月的剧情简介 · · · · · ·
  本片根据汤姆·克兰西畅销名著改编。
  1984年11月,苏联正处于戈尔巴乔夫上台前夕,也是美、苏两个超级大国明争暗斗的冷战高潮时期。苏联研制了一艘新型核潜艇“红十月号”,并派老练的雷米斯负责该艇的首次试航演习。此时,美国中央情报局也获取了有关“红十月”号的情报。途中,艇长雷米斯杀死了发现他隐私的专横政委并命令潜艇改变航向。他向全体官兵声称此举是要利用该艇先进的无声推进系统去通过美国海军的监视网并纵情游览美国的海岸线。一个苏联高级将领秘密挟带一艘超级军用潜艇“红月十月号”,究竟是想投奔美国,还是制造一场核战争?苏联国防部大为震动,遣派军队追捕,美国中央情报局亦派出精英部队拦截,一场联系美苏两国军事平衡的追击行动由此展开。

猎杀红色十月的获奖情况
第63届奥斯卡金像奖 最佳剪辑(提名) Dennis Virkler / John Wright
第63届奥斯卡金像奖 最佳音效剪辑 George Watters II / Cecelia Hall
第63届奥斯卡金像奖 最佳音响(提名) Richard Overton

截图





Video
ID                                       : 1
Format                                   : AVC
Format/Info                              : Advanced Video Codec
Format profile                           : High@L4.1
Format settings, CABAC                   : Yes
Format settings, ReFrames                : 5 frames
Codec ID                                 : V_MPEG4/ISO/AVC
Duration                                 : 2h 15mn
Bit rate                                 : 11.9 Mbps
Width                                    : 1 920 pixels
Height                                   : 818 pixels
Display aspect ratio                     : 2.35:1
Frame rate mode                          : Constant
Frame rate                               : 23.976 fps
Color space                              : YUV
Chroma subsampling                       : 4:2:0
Bit depth                                : 8 bits
Scan type                                : Progressive
Bits/(Pixel*Frame)                       : 0.316
Stream size                              : 11.2 GiB (87%)
Writing library                          : x264 core 122 r2184 5c85e0a
Encoding settings                        : cabac=1 / ref=5 / deblock=1:-3:-3 / analyse=0x3:0x113 / me=umh / subme=11 / psy=1 / psy_rd=1.00:0.00 / mixed_ref=1 / me_range=32 / chroma_me=1 / trellis=2 / 8x8dct=1 / cqm=0 / deadzone=21,11 / fast_pskip=0 / chroma_qp_offset=-3 / threads=6 / sliced_threads=0 / nr=0 / decimate=1 / interlaced=0 / bluray_compat=0 / constrained_intra=0 / bframes=12 / b_pyramid=2 / b_adapt=2 / b_bias=0 / direct=1 / weightb=1 / open_gop=0 / weightp=2 / keyint=240 / keyint_min=22 / scenecut=40 / intra_refresh=0 / rc_lookahead=40 / rc=crf / mbtree=1 / crf=18.5 / qcomp=0.60 / qpmin=0 / qpmax=69 / qpstep=4 / vbv_maxrate=50000 / vbv_bufsize=62500 / crf_max=0.0 / nal_hrd=none / ip_ratio=1.40 / aq=1:0.90
Language                                 : English
Default                                  : Yes
Forced                                   : No

Audio
ID                                       : 2
Format                                   : DTS
Format/Info                              : Digital Theater Systems
Mode                                     : 16
Format settings, Endianness              : Big
Codec ID                                 : A_DTS
Duration                                 : 2h 15mn
Bit rate mode                            : Constant
Bit rate                                 : 1 510 Kbps
Channel(s)                               : 6 channels
Channel positions                        : Front: L C R, Side: L R, LFE
Sampling rate                            : 48.0 KHz
Bit depth                                : 24 bits
Compression mode                         : Lossy
Stream size                              : 1.43 GiB (11%)
Language                                 : English
Default                                  : Yes
Forced                                   : No

Text
ID                                       : 3
Format                                   : UTF-8
Codec ID                                 : S_TEXT/UTF8
Codec ID/Info                            : UTF-8 Plain Text
Language                                 : English
Default                                  : No
Forced                                   : No

Menu
00:00:00.000                             : en:Turbulence
00:13:12.958                             : en:Two Keys, One Safe
00:19:35.757                             : en:Caterpillar Drive
00:33:26.504                             : en:Ryan\'s Briefing
00:43:06.417                             : en:Sub Plots
00:51:47.062                             : en:Thor\'s Twins
01:05:25.546                             : en:Evasive Action
01:11:14.979                             : en:Crazy Ivans
01:25:03.807                             : en:Rendezvous
01:36:51.930                             : eneriscope Depth
01:47:51.756                             : en:East Meets West
01:55:18.745                             : en:Battle Stations
02:07:59.713                             : en:Home Free


The.Hunt.for.Red.October.1990.1080p.BluRay.x264.DTS.torrent

33.04 KB, 下载次数: 88

QQ电影交流群: 498117193
您需要登录后才可以回帖 登录 | 注册

本版积分规则

BT探索

GMT+8, 2018-12-19 00:59

Powered by Discuz! X3.2

© 2001-2013 Comsenz Inc.

快速回复 返回顶部 返回列表