BT探索

 找回密码
 注册
查看: 240|回复: 0

[欧美] 惊天核网.The.Sum.Of.All.Fears.2002.1080p.BluRay.x264-MUxHD.8.18 GB

[复制链接]

3万

主题

4万

帖子

13万

影币

管理员

Rank: 8Rank: 8Rank: 8Rank: 8Rank: 8Rank: 8Rank: 8Rank: 8

积分
133320
注册时间
2010-9-1
最后登录
2018-9-24

Medal No.1Medal No.2Medal No.3Medal No.4Medal No.5Medal No.6Medal No.7Medal No.8Medal No.9Medal No.10

发表于 2018-3-14 13:21:21 | 显示全部楼层 |阅读模式
海报


导演: 菲尔·奥尔登·罗宾森
编剧: 保罗·阿塔那斯奥 / Daniel Pyne
主演: 本·阿弗莱克 / 摩根·弗里曼 / 詹姆斯·克伦威尔 / 列维·施瑞博尔 / 布鲁斯·麦克吉尔 / 菲利普·贝克·霍尔 / 布丽姬·穆娜
类型: 剧情 / 动作 / 惊悚
官方网站: http://www.sumofallfearsmovie.com/
制片国家/地区: 美国 / 德国
语言: 英语 / 俄语 / 乌克兰语 / 德语 / 阿拉伯语
上映日期: 2002-05-31
片长: 124 分钟 / Spain: 128 分钟
又名: 恐惧的总和 / 恐惧杀机 / 恐惧之巅
IMDb链接: tt0164184

惊天核网的剧情简介 · · · · · ·
  1973年的第四次中东战争中,一架携带着核武器的以色列战机在叙利亚被击毁,核弹随之便被时间和风沙掩埋。然而29年后,核弹却被一对平民夫妇掘起,并廉价变卖给军火商,最后兜售给了恐怖分子,而这些恐怖分子正在策划一场在美国繁华集会地点的核爆,并将其嫁祸给俄罗斯,意在挑起新一轮世界大战。年轻警觉的CIA情报分析师杰克·瑞恩(本·阿弗莱克 Ben Affleck 饰)在与俄罗斯新任总统会面时,隐约感到事有蹊跷,并通过眼线很快洞察了恐怖分子的惊天阴谋。然而瑞恩的判断却未能得到局里的重视,在一筹莫展之际,他得到了资深睿智的老分析顾问威廉·卡伯特(摩根·弗里曼 Morgan Freeman 饰)的信任与合作,然而仅凭他们二人之力,能否赶在恐怖分子下手前找到核弹,阻止这一毁灭性的悲剧发生呢?
  本片改编自美国军事作家汤姆·克兰西的同名小说。

截图





Video
ID                                       : 1
Format                                   : AVC
Format/Info                              : Advanced Video Codec
Format profile                           : High@L4.1
Format settings                          : CABAC / 5 Ref Frames
Format settings, CABAC                   : Yes
Format settings, ReFrames                : 5 frames
Codec ID                                 : V_MPEG4/ISO/AVC
Duration                                 : 2 h 3 min
Bit rate                                 : 8 830 kb/s
Width                                    : 1 920 pixels
Height                                   : 800 pixels
Display aspect ratio                     : 2.40:1
Frame rate mode                          : Constant
Frame rate                               : 23.976 (24000/1001) FPS
Color space                              : YUV
Chroma subsampling                       : 4:2:0
Bit depth                                : 8 bits
Scan type                                : Progressive
Bits/(Pixel*Frame)                       : 0.240
Stream size                              : 7.63 GiB (93%)
Writing library                          : x264 core 152 r2851 ba24899
Encoding settings                        : cabac=1 / ref=5 / deblock=1:0:0 / analyse=0x3:0x133 / me=esa / subme=7 / psy=1 / psy_rd=1.00:0.00 / mixed_ref=1 / me_range=16 / chroma_me=1 / trellis=1 / 8x8dct=1 / cqm=0 / deadzone=21,11 / fast_pskip=0 / chroma_qp_offset=-2 / threads=12 / lookahead_threads=2 / sliced_threads=0 / nr=0 / decimate=1 / interlaced=0 / bluray_compat=0 / constrained_intra=0 / bframes=3 / b_pyramid=2 / b_adapt=1 / b_bias=0 / direct=3 / weightb=1 / open_gop=0 / weightp=2 / keyint=240 / keyint_min=23 / scenecut=40 / intra_refresh=0 / rc_lookahead=50 / rc=2pass / mbtree=1 / bitrate=8830 / ratetol=1.0 / qcomp=0.60 / qpmin=0 / qpmax=69 / qpstep=4 / cplxblur=20.0 / qblur=0.5 / ip_ratio=1.40 / aq=1:1.00
Language                                 : English
Default                                  : Yes
Forced                                   : No

Audio
ID                                       : 2
Format                                   : AC-3
Format/Info                              : Audio Coding 3
Codec ID                                 : A_AC3
Duration                                 : 2 h 3 min
Bit rate mode                            : Constant
Bit rate                                 : 640 kb/s
Channel(s)                               : 6 channels
Channel positions                        : Front: L C R, Side: L R, LFE
Sampling rate                            : 48.0 kHz
Frame rate                               : 31.250 FPS (1536 SPF)
Bit depth                                : 16 bits
Compression mode                         : Lossy
Stream size                              : 566 MiB (7%)
Language                                 : English
Service kind                             : Complete Main
Default                                  : No
Forced                                   : No

Text #1
ID                                       : 3
Format                                   : UTF-8
Codec ID                                 : S_TEXT/UTF8
Codec ID/Info                            : UTF-8 Plain Text
Duration                                 : 1 h 48 min
Bit rate                                 : 5 b/s
Count of elements                        : 131
Stream size                              : 4.29 KiB (0%)
Title                                    : English Forced
Language                                 : English
Default                                  : Yes
Forced                                   : Yes

Text #2
ID                                       : 4
Format                                   : UTF-8
Codec ID                                 : S_TEXT/UTF8
Codec ID/Info                            : UTF-8 Plain Text
Duration                                 : 1 h 55 min
Bit rate                                 : 56 b/s
Count of elements                        : 1353
Stream size                              : 47.9 KiB (0%)
Language                                 : English
Default                                  : No
Forced                                   : No

Menu
00:00:00.000                             : en:00:00:00.000
00:04:51.917                             : en:00:04:51.917
00:13:01.322                             : en:00:13:01.322
00:24:07.571                             : en:00:24:07.571
00:30:07.264                             : en:00:30:07.264
00:36:33.650                             : en:00:36:33.650
00:48:07.968                             : en:00:48:07.968
01:01:50.332                             : en:01:01:50.332
01:06:21.394                             : en:01:06:21.394
01:13:18.019                             : en:01:13:18.019
01:20:13.600                             : en:01:20:13.600
01:26:06.495                             : en:01:26:06.495
01:33:54.212                             : en:01:33:54.212
01:42:03.784                             : en:01:42:03.784
01:47:24.063                             : en:01:47:24.063
01:51:40.652                             : en:01:51:40.652
01:57:18.573                             : en:01:57:18.573


The.Sum.Of.All.Fears.2002.1080p.BluRay.x264.torrent

82.37 KB, 下载次数: 90

QQ电影交流群: 498117193
您需要登录后才可以回帖 登录 | 注册

本版积分规则

BT探索

GMT+8, 2018-9-24 17:36

Powered by Discuz! X3.2

© 2001-2013 Comsenz Inc.

快速回复 返回顶部 返回列表