BT探索

 找回密码
 注册
查看: 531|回复: 0

[1080p] 猎杀U-571.U-571.2000.1080p.BluRay.x264-TiMELORDS.8.75 GB

[复制链接]

3万

主题

4万

帖子

14万

影币

管理员

Rank: 8Rank: 8Rank: 8Rank: 8Rank: 8Rank: 8Rank: 8Rank: 8

积分
144748
注册时间
2010-9-1
最后登录
2018-12-18

Medal No.1Medal No.2Medal No.3Medal No.4Medal No.5Medal No.6Medal No.7Medal No.8Medal No.9Medal No.10

发表于 2018-3-14 13:24:06 | 显示全部楼层 |阅读模式
海报


导演: 乔纳森·莫斯托
编剧: 乔纳森·莫斯托 / Sam Montgomery / David Ayer
主演: 马修·麦康纳 / 比尔·帕克斯顿 / 哈威·凯特尔 / 托马斯·克莱舒曼 / 乔恩·邦·乔维
类型: 剧情 / 动作 / 战争
制片国家/地区: 美国 / 法国
语言: 英语 / 德语
上映日期: 2000-04-21
片长: 116 分钟
又名: 深海任务U-571 / U-571风暴
IMDb链接: tt0141926

猎杀U-571的剧情简介 · · · · · ·
  1942年4月,二战期间,大西洋上,德军战舰采取“狼群”战术,令盟军损失惨重。美国海军上尉泰勒(马修•麦康纳 Matthew McConaughey 饰)因抗敌表现出色,曾被许诺晋升艇长,但是却因故不能如愿。这时突然传来敌情,泰勒临危受命,登上S-33老爷级潜艇执行秘密任务,指挥官为上尉迈克(比尔•帕克斯顿 Bill Paxton 饰),同行的还有哈什(哈威•凯特尔 Harvey Keitel 饰)上尉和库南少校等。经过勘察,一艘德军受创潜艇U-571,正在发出求救信号。S-33的任务是伪装成一艘德军的维修舰,以维修作掩护,从U-571上获取德国最先进的译码设备。不过,由于S-33年久失修,水箱等装备已到服役期,若潜入200米以下恐有危险,但是为了完成任务,泰勒等人还是小心驾驶,偷袭了德国军舰,但正在此时,德军的鱼雷也逼近了U-571,他们命悬一线,生死未卜……

猎杀U-571的获奖情况
第73届奥斯卡金像奖 最佳音效剪辑 乔恩约翰逊
第73届奥斯卡金像奖 最佳音响(提名) 格雷格·兰达克 / 史蒂夫·马斯洛 / 伊万·夏罗克 / 里克·克莱恩

截图





Video
ID                                       : 1
Format                                   : AVC
Format/Info                              : Advanced Video Codec
Format profile                           : High@L4.1
Format settings, CABAC                   : Yes
Format settings, ReFrames                : 5 frames
Codec ID                                 : V_MPEG4/ISO/AVC
Duration                                 : 1h 56mn
Bit rate                                 : 9 258 Kbps
Width                                    : 1 920 pixels
Height                                   : 816 pixels
Display aspect ratio                     : 2.35:1
Frame rate mode                          : Constant
Frame rate                               : 23.976 (24000/1001) fps
Color space                              : YUV
Chroma subsampling                       : 4:2:0
Bit depth                                : 8 bits
Scan type                                : Progressive
Bits/(Pixel*Frame)                       : 0.246
Stream size                              : 7.35 GiB (84%)
Title                                    : U-571
Writing library                          : x264 core 65 r1080 56e9183
Encoding settings                        : cabac=1 / ref=5 / deblock=1:0:0 / analyse=0x3:0x133 / me=umh / subme=7 / psy_rd=1.0:0.0 / mixed_ref=1 / me_range=16 / chroma_me=1 / trellis=1 / 8x8dct=1 / cqm=0 / deadzone=21,11 / chroma_qp_offset=-2 / threads=6 / nr=0 / decimate=1 / mbaff=0 / bframes=3 / b_pyramid=1 / b_adapt=1 / b_bias=0 / direct=1 / wpredb=1 / keyint=250 / keyint_min=25 / scenecut=40(pre) / rc=2pass / bitrate=9258 / ratetol=1.0 / qcomp=0.60 / qpmin=10 / qpmax=51 / qpstep=4 / cplxblur=20.0 / qblur=0.5 / ip_ratio=1.40 / pb_ratio=1.30 / aq=1:1.00
Default                                  : Yes
Forced                                   : No

Audio
ID                                       : 2
Format                                   : DTS
Format/Info                              : Digital Theater Systems
Mode                                     : 16
Format settings, Endianness              : Big
Codec ID                                 : A_DTS
Duration                                 : 1h 56mn
Bit rate mode                            : Constant
Bit rate                                 : 1 509 Kbps
Channel(s)                               : 6 channels
Channel positions                        : Front: L C R, Side: L R, LFE
Sampling rate                            : 48.0 KHz
Frame rate                               : 93.750 fps (512 spf)
Bit depth                                : 24 bits
Compression mode                         : Lossy
Stream size                              : 1.23 GiB (14%)
Title                                    : DTS
Language                                 : English
Default                                  : Yes
Forced                                   : No

Text
ID                                       : 3
Format                                   : UTF-8
Codec ID                                 : S_TEXT/UTF8
Codec ID/Info                            : UTF-8 Plain Text
Title                                    : SDH
Language                                 : English
Default                                  : No
Forced                                   : No


U-571.2000.1080p.BluRay.x264.torrent

88 KB, 下载次数: 80

QQ电影交流群: 498117193
您需要登录后才可以回帖 登录 | 注册

本版积分规则

BT探索

GMT+8, 2018-12-19 01:36

Powered by Discuz! X3.2

© 2001-2013 Comsenz Inc.

快速回复 返回顶部 返回列表