BT探索

 找回密码
 注册
查看: 264|回复: 0

[欧美] 与人为恶.Backstabbing.for.Beginners.2018.720p.BluRay.x264.DTS-MT.6.01 GB

[复制链接]

3万

主题

4万

帖子

13万

影币

管理员

Rank: 8Rank: 8Rank: 8Rank: 8Rank: 8Rank: 8Rank: 8Rank: 8

积分
130621
注册时间
2010-9-1
最后登录
2018-8-15

Medal No.1Medal No.2Medal No.3Medal No.4Medal No.5Medal No.6Medal No.7Medal No.8Medal No.9Medal No.10

发表于 2018-4-19 20:05:21 | 显示全部楼层 |阅读模式
海报


导演: 皮尔·弗莱
编剧: 皮尔·弗莱 / 丹尼尔·佩尼 / Michael Soussan
主演: 提奥·詹姆斯 / 本·金斯利 / 杰奎琳·比塞特 / 罗西弗·萨瑟兰 / 蕾切尔·威尔森 / 布莱恩·马克金森 / 贝尔奇姆·比尔金 / 肖娜·麦克唐纳德 / 艾丹·迪瓦恩 / Zahir Gilani
类型: 惊悚
制片国家/地区: 丹麦 / 加拿大 / 美国
语言: 英语
上映日期: 2018-01-18(丹麦)
片长: 108分钟
又名: 新人勿近
IMDb链接: tt5153288

与人为恶的剧情简介 · · · · · ·
  A24影业将与DirecTV联合发行提奥·詹姆斯新片[与人为恶](Backstabbing for Beginners,暂译)。影片由丹麦导演皮尔·弗莱([长凳])执导,提奥在片中饰演了一位身处战后伊拉克的联合国世界粮食计划署协调员,颇为理想主义的他,不得不与各方势力斡旋。本·金斯利、杰奎琳·比塞特亦有参演本片。

截图





Video
ID                                       : 2
Format                                   : AVC
Format/Info                              : Advanced Video Codec
Format profile                           : High@L4.1
Format settings                          : CABAC / 12 Ref Frames
Format settings, CABAC                   : Yes
Format settings, ReFrames                : 12 frames
Codec ID                                 : V_MPEG4/ISO/AVC
Duration                                 : 1 h 48 min
Bit rate                                 : 6 433 kb/s
Width                                    : 1 280 pixels
Height                                   : 536 pixels
Display aspect ratio                     : 2.40:1
Frame rate mode                          : Constant
Frame rate                               : 23.976 (24000/1001) FPS
Color space                              : YUV
Chroma subsampling                       : 4:2:0
Bit depth                                : 8 bits
Scan type                                : Progressive
Bits/(Pixel*Frame)                       : 0.391
Stream size                              : 4.87 GiB (81%)
Default                                  : Yes
Forced                                   : No

Audio
ID                                       : 1
Format                                   : DTS
Format/Info                              : Digital Theater Systems
Codec ID                                 : A_DTS
Duration                                 : 1 h 48 min
Bit rate mode                            : Constant
Bit rate                                 : 1 509 kb/s
Channel(s)                               : 6 channels
Channel positions                        : Front: L C R, Side: L R, LFE
Sampling rate                            : 48.0 kHz
Frame rate                               : 93.750 FPS (512 SPF)
Bit depth                                : 24 bits
Compression mode                         : Lossy
Stream size                              : 1.14 GiB (19%)
Default                                  : Yes
Forced                                   : No



Backstabbing.for.Beginners.2018.720p.BluRay.x264.DTS.torrent

60.65 KB, 下载次数: 53

电影交流QQ群: 498117193
您需要登录后才可以回帖 登录 | 注册

本版积分规则

BT探索

GMT+8, 2018-8-16 03:22

Powered by Discuz! X3.2

© 2001-2013 Comsenz Inc.

快速回复 返回顶部 返回列表