BT探索

 找回密码
 注册
搜索
查看: 169|回复: 1

[HDR] 明日边缘.2014.2160p.WEBRip.x265.10bit.HDR.DTS-HD.MA.7.1-GASMASK.32.11 GB

[复制链接]

3万

主题

4万

帖子

11万

影币

管理员

Rank: 8Rank: 8Rank: 8Rank: 8Rank: 8Rank: 8Rank: 8Rank: 8

积分
115958
注册时间
2010-9-1
最后登录
2018-5-23

Medal No.1Medal No.2Medal No.3Medal No.4Medal No.5Medal No.6Medal No.7Medal No.8Medal No.9Medal No.10

发表于 2018-4-20 08:52:55 | 显示全部楼层 |阅读模式
海报


导演: 道格·里曼
编剧: 克里斯托弗·麦奎里 / 杰斯·巴特沃斯 / 约翰-亨利·巴特沃斯 / 樱坂洋
主演: 汤姆·克鲁斯 / 艾米莉·布朗特 / 布莱丹·格里森 / 比尔·帕克斯顿 / 约纳斯·阿姆斯特朗 / 托尼·威 / 奇克·盖瑞 / 弗朗茨·德拉姆 / 德拉戈米尔·米希克 / 夏洛特·莱利 / 羽田正义 / 特伦斯·梅纳德 / 诺亚·泰勒 / 劳拉·普沃 / 玛德琳·曼托克
类型: 动作 / 科幻
制片国家/地区: 美国 / 加拿大
语言: 英语
上映日期: 2014-06-06(美国/中国大陆)
片长: 114分钟(中国大陆) / 113分钟(美国)
又名: 异空战士(港) / 明日边界(台) / 杀戮轮回 / 生死轮回 / We Mortals Are / All You Need Is Kill / Live Die Repeat: Edge of Tomorrow
IMDb链接: tt1631867

明日边缘的剧情简介 · · · · · ·
  未来世界陷入外星人入侵的恐慌中,军事演说家凯奇少校(汤姆·克鲁斯 Tom Cruise 饰)畏惧上战场,他从没想过将军(布莱丹·格里森 Brendan Gleeson 饰)会让他去指挥即将开始的“诺曼底战役”,拒绝接受命令之后将军居然恶整了他,那就是把他当做逃兵扔进了军 营中。凯奇被归入了J小队中进行战斗,战役的第一天就惨死在战场,没想到这一死让他拥有了时空循环的能力,而唯一相信他的人就是被称为“全金属战士”的丽塔·沃拉塔斯基(艾米莉·布朗特 Emily Blunt 饰)。二人开始了时空循环作战,在训练凯奇的同时他们发现了控制时间的奥秘,这与外星人“主脑”欧米茄有关,但是唯一能取得胜利的方法就是让凯奇不断死去、不断重启时间。在不断重复登陆那天的战斗的同时,凯奇越来越不想失去丽塔……

明日边缘的获奖情况
第42届动画安妮奖 最佳真人电影动画效果
第16届美国青少年选择奖 最佳动作冒险电影(提名)
第1届豆瓣电影年度榜单 最受关注的院线电影(提名)


截图





Video
ID                                       : 1
Format                                   : HEVC
Format/Info                              : High Efficiency Video Coding
Format profile                           : Main 10@L5@Main
Codec ID                                 : V_MPEGH/ISO/HEVC
Duration                                 : 1 h 53 min
Bit rate                                 : 32.3 Mb/s
Width                                    : 3 840 pixels
Height                                   : 1 600 pixels
Display aspect ratio                     : 2.40:1
Frame rate mode                          : Constant
Frame rate                               : 23.976 (24000/1001) FPS
Color space                              : YUV
Chroma subsampling                       : 4:2:0
Bit depth                                : 10 bits
Bits/(Pixel*Frame)                       : 0.219
Stream size                              : 25.6 GiB (80%)
Default                                  : Yes
Forced                                   : No
Color range                              : Limited
Color primaries                          : BT.2020
Transfer characteristics                 : PQ
Matrix coefficients                      : BT.2020 non-constant
Mastering display color primaries        : Display P3
Mastering display luminance              : min: 0.0050 cd/m2, max: 1000 cd/m2

Audio #1
ID                                       : 2
Format                                   : DTS
Format/Info                              : Digital Theater Systems
Format profile                           : MA / Core
Codec ID                                 : A_DTS
Duration                                 : 1 h 53 min
Bit rate mode                            : Variable / Constant
Bit rate                                 : 5 208 kb/s / 1 509 kb/s
Channel(s)                               : 8 channels / 6 channels
Channel positions                        : Front: L C R, Side: L R, Back: L R, LFE / Front: L C R, Side: L R, LFE
Sampling rate                            : 48.0 kHz
Frame rate                               : 93.750 FPS (512 SPF)
Bit depth                                : 24 bits
Compression mode                         : Lossless / Lossy
Delay relative to video                  : 10 ms
Stream size                              : 4.13 GiB (13%)
Language                                 : English
Default                                  : Yes
Forced                                   : No

Audio #2
ID                                       : 3
Format                                   : DTS
Format/Info                              : Digital Theater Systems
Codec ID                                 : A_DTS
Duration                                 : 1 h 53 min
Bit rate mode                            : Constant
Bit rate                                 : 1 509 kb/s
Channel(s)                               : 6 channels
Channel positions                        : Front: L C R, Side: L R, LFE
Sampling rate                            : 48.0 kHz
Frame rate                               : 93.750 FPS (512 SPF)
Bit depth                                : 24 bits
Compression mode                         : Lossy
Delay relative to video                  : 10 ms
Stream size                              : 1.20 GiB (4%)
Language                                 : English
Default                                  : No
Forced                                   : No

Audio #3
ID                                       : 4
Format                                   : DTS
Format/Info                              : Digital Theater Systems
Codec ID                                 : A_DTS
Duration                                 : 1 h 49 min
Bit rate mode                            : Constant
Bit rate                                 : 1 509 kb/s
Channel(s)                               : 6 channels
Channel positions                        : Front: L C R, Side: L R, LFE
Sampling rate                            : 48.0 kHz
Frame rate                               : 93.750 FPS (512 SPF)
Bit depth                                : 24 bits
Compression mode                         : Lossy
Delay relative to video                  : 10 ms
Stream size                              : 1.15 GiB (4%)
Language                                 : French
Default                                  : No
Forced                                   : No

Text #1
ID                                       : 5
Format                                   : PGS
Muxing mode                              : zlib
Codec ID                                 : S_HDMV/PGS
Codec ID/Info                            : Picture based subtitle format used on BDs/HD-DVDs
Duration                                 : 1 h 53 min
Bit rate                                 : 31.7 kb/s
Count of elements                        : 3026
Stream size                              : 25.7 MiB (0%)
Language                                 : English
Default                                  : No
Forced                                   : No

Text #2
ID                                       : 6
Format                                   : PGS
Muxing mode                              : zlib
Codec ID                                 : S_HDMV/PGS
Codec ID/Info                            : Picture based subtitle format used on BDs/HD-DVDs
Duration                                 : 1 h 52 min
Bit rate                                 : 25.3 kb/s
Count of elements                        : 2686
Stream size                              : 20.4 MiB (0%)
Language                                 : French
Default                                  : No
Forced                                   : No


Edge.of.Tomorrow.2014.2160p.WEBRip.x265.10bit.HDR.DTS-HD.MA.7.1.torrent

80.86 KB, 下载次数: 14

电影交流QQ群: 498117193

0

主题

12

帖子

22

影币

观众

Rank: 1

积分
22
注册时间
2018-5-11
最后登录
2018-5-22
发表于 2018-5-15 10:55:54 | 显示全部楼层
多謝大大分享~
电影交流QQ群: 498117193
您需要登录后才可以回帖 登录 | 注册

本版积分规则

小黑屋|手机版|BT探索

GMT+8, 2018-5-23 15:23

Powered by Discuz! X3.2

© 2001-2013 Comsenz Inc.

快速回复 返回顶部 返回列表