BT探索

 找回密码
 注册
搜索
查看: 145|回复: 0

[日韩] 杀人者的记忆法.Memoir.of.a.Murderer.2017.DC.KOREAN.720p.BluRay.x264.DTS.8.32 GB

[复制链接]

3万

主题

4万

帖子

11万

影币

管理员

Rank: 8Rank: 8Rank: 8Rank: 8Rank: 8Rank: 8Rank: 8Rank: 8

积分
116666
注册时间
2010-9-1
最后登录
2018-5-26

Medal No.1Medal No.2Medal No.3Medal No.4Medal No.5Medal No.6Medal No.7Medal No.8Medal No.9Medal No.10

发表于 2018-4-22 12:02:03 | 显示全部楼层 |阅读模式
海报


导演: 元新渊
编剧: 黄祖润 / 元新渊 / 金英夏
主演: 薛耿求 / 金南佶 / 金雪炫 / 吴达洙 / 蔡国熙 / 郑仁谦 / 申基俊 / 申邻雅 / 黄锡晶 / 吉海妍
类型: 剧情 / 悬疑 / 惊悚 / 犯罪
制片国家/地区: 韩国
语言: 韩语
上映日期: 2017-09-06(韩国)
片长: 118分钟
又名: Memoir of Murderer
IMDb链接: tt5729348

杀人者的记忆法的剧情简介 · · · · · ·
  该片根据同名小说改编,讲述患有阿兹海默症的连续杀人犯炳秀(薛耿求饰)金盆洗手,可村庄却再现连环杀人案,这让炳秀陷入混乱记忆之中。于此同时女儿(金雪炫饰),神秘男子(金南佶饰)也身陷其中。

杀人者的记忆法的获奖情况
第4届豆瓣电影年度榜单 评分最高的惊悚/犯罪片(提名)

截图




Video
ID                                       : 1
Format                                   : AVC
Format/Info                              : Advanced Video Codec
Format profile                           : High@L4.1
Format settings                          : CABAC / 12 Ref Frames
Format settings, CABAC                   : Yes
Format settings, ReFrames                : 12 frames
Codec ID                                 : V_MPEG4/ISO/AVC
Duration                                 : 2 h 8 min
Bit rate                                 : 7 736 kb/s
Width                                    : 1 280 pixels
Height                                   : 536 pixels
Display aspect ratio                     : 2.40:1
Frame rate mode                          : Constant
Frame rate                               : 23.976 (24000/1001) FPS
Color space                              : YUV
Chroma subsampling                       : 4:2:0
Bit depth                                : 8 bits
Scan type                                : Progressive
Bits/(Pixel*Frame)                       : 0.470
Stream size                              : 6.96 GiB (84%)
Title                                    : Memoir.of.a.Murderer.2017.DC.KOREAN.720p.BluRay.x264.DTS-MT
Language                                 : Korean
Default                                  : Yes
Forced                                   : No

Audio
ID                                       : 2
Format                                   : DTS
Format/Info                              : Digital Theater Systems
Codec ID                                 : A_DTS
Duration                                 : 2 h 8 min
Bit rate mode                            : Constant
Bit rate                                 : 1 509 kb/s
Channel(s)                               : 6 channels
Channel positions                        : Front: L C R, Side: L R, LFE
Sampling rate                            : 48.0 kHz
Frame rate                               : 93.750 FPS (512 SPF)
Bit depth                                : 24 bits
Compression mode                         : Lossy
Stream size                              : 1.36 GiB (16%)
Title                                    : Memoir.of.a.Murderer.2017.DC.KOREAN.720p.BluRay.x264.DTS-MT
Language                                 : Korean
Default                                  : Yes
Forced                                   : No

Text
ID                                       : 3
Format                                   : UTF-8
Codec ID                                 : S_TEXT/UTF8
Codec ID/Info                            : UTF-8 Plain Text
Duration                                 : 2 h 2 min
Bit rate                                 : 39 b/s
Count of elements                        : 1266
Stream size                              : 35.5 KiB (0%)
Title                                    : English
Language                                 : English
Default                                  : Yes
Forced                                   : Yes

Memoir.of.a.Murderer.2017.DC.KOREAN.720p.BluRay.x264.DTS.torrent

83.74 KB, 下载次数: 73

电影交流QQ群: 498117193
您需要登录后才可以回帖 登录 | 注册

本版积分规则

小黑屋|手机版|BT探索

GMT+8, 2018-5-27 09:29

Powered by Discuz! X3.2

© 2001-2013 Comsenz Inc.

快速回复 返回顶部 返回列表