BT探索

 找回密码
 注册
搜索
查看: 147|回复: 0

[HDR] 金钱世界.2017.2160p.WEBRip.x265.10bit.HDR.DTS-HD.MA.5.1-GA.30.18 GB

[复制链接]

3万

主题

4万

帖子

11万

影币

管理员

Rank: 8Rank: 8Rank: 8Rank: 8Rank: 8Rank: 8Rank: 8Rank: 8

积分
116953
注册时间
2010-9-1
最后登录
2018-5-28

Medal No.1Medal No.2Medal No.3Medal No.4Medal No.5Medal No.6Medal No.7Medal No.8Medal No.9Medal No.10

发表于 2018-4-23 08:32:44 | 显示全部楼层 |阅读模式
海报


导演: 雷德利·斯科特
编剧: 大卫·斯卡尔帕 / 约翰·皮尔逊
主演: 米歇尔·威廉姆斯 / 克里斯托弗·普卢默 / 马克·沃尔伯格 / 查理·普拉默 / 罗曼·杜里斯 / 蒂莫西·赫顿 / 斯塔西·马汀 / 查理·肖特韦尔 / 安德鲁·巴肯 / 马克·莱昂纳蒂 / 朱塞佩·博尼法蒂 / 尼可拉斯·瓦波里蒂斯 / 安德里亚·皮耶迪蒙特·博迪尼 / 古列尔莫·法维拉 / 尼古拉·迪奇欧 / 阿黛尔·蒂兰特 / 亚历山德拉·罗卡 / 弗兰切斯卡·茵奥迪 / 丹尼尔·高斯林 / 乔纳森·阿里斯
类型: 剧情 / 悬疑 / 犯罪
制片国家/地区: 美国
语言: 英语
上映日期: 2018-03-02(中国大陆) / 2017-12-25(美国)
片长: 132分钟 / 124分钟(中国大陆)
又名: 万恶金钱(港) / 世上所有的财富
IMDb链接: tt5294550

金钱世界的剧情简介 · · · · · ·
  电影《金钱世界》改编自一起曾轰动世界的豪门绑架事件:世界首富保罗·盖蒂(克里斯托弗·普卢默 饰)之孙遭遇黑帮绑架,绑匪向其母盖尔(米歇尔·威廉姆斯 饰)索要1700万美元赎金,已经与丈夫离婚的盖尔无力支付这笔高昂的赎金,只能向盖蒂家族求救,但富可敌国却无比吝啬的老盖蒂却拒绝为孙子(查理·普拉默 饰)支付赎金,拿不到钱的绑匪丧心病狂的割下了人质的耳朵邮寄给盖蒂家族,心碎的盖尔在前CIA特工弗莱彻·蔡斯(马克·沃尔伯格 饰)的协助下,试图撼动这一僵局,解救自己的儿子……

金钱世界的获奖情况
第90届奥斯卡金像奖 最佳男配角(提名) 克里斯托弗·普卢默
第75届金球奖 电影类 最佳导演(提名) 雷德利·斯科特
第71届英国电影学院奖 电影奖 最佳男配角(提名) 克里斯托弗·普卢默


截图





Video
ID                                       : 1
Format                                   : HEVC
Format/Info                              : High Efficiency Video Coding
Format profile                           : Main 10@L5@Main
Codec ID                                 : V_MPEGH/ISO/HEVC
Duration                                 : 2 h 12 min
Bit rate                                 : 26.7 Mb/s
Width                                    : 3 840 pixels
Height                                   : 2 160 pixels
Display aspect ratio                     : 16:9
Frame rate mode                          : Constant
Frame rate                               : 23.976 (24000/1001) FPS
Color space                              : YUV
Chroma subsampling                       : 4:2:0
Bit depth                                : 10 bits
Bits/(Pixel*Frame)                       : 0.134
Stream size                              : 24.7 GiB (82%)
Default                                  : Yes
Forced                                   : No
Color range                              : Limited
Color primaries                          : BT.2020
Transfer characteristics                 : PQ
Matrix coefficients                      : BT.2020 non-constant
Mastering display color primaries        : Display P3
Mastering display luminance              : min: 0.0050 cd/m2, max: 1000 cd/m2

Audio #1
ID                                       : 2
Format                                   : DTS
Format/Info                              : Digital Theater Systems
Format profile                           : MA / Core
Codec ID                                 : A_DTS
Duration                                 : 2 h 12 min
Bit rate mode                            : Variable / Constant
Bit rate                                 : 2 341 kb/s / 1 509 kb/s
Channel(s)                               : 6 channels
Channel positions                        : Front: L C R, Side: L R, LFE
Sampling rate                            : 48.0 kHz
Frame rate                               : 93.750 FPS (512 SPF)
Bit depth                                : 16 bits
Compression mode                         : Lossless / Lossy
Delay relative to video                  : 1 s 31 ms
Stream size                              : 2.17 GiB (7%)
Language                                 : English
Default                                  : Yes
Forced                                   : No

Audio #2
ID                                       : 3
Format                                   : DTS
Format/Info                              : Digital Theater Systems
Codec ID                                 : A_DTS
Duration                                 : 2 h 12 min
Bit rate mode                            : Constant
Bit rate                                 : 1 509 kb/s
Channel(s)                               : 6 channels
Channel positions                        : Front: L C R, Side: L R, LFE
Sampling rate                            : 48.0 kHz
Frame rate                               : 93.750 FPS (512 SPF)
Bit depth                                : 16 bits
Compression mode                         : Lossy
Delay relative to video                  : 1 s 31 ms
Stream size                              : 1.40 GiB (5%)
Language                                 : English
Default                                  : No
Forced                                   : No

Audio #3
ID                                       : 4
Format                                   : AC-3
Format/Info                              : Audio Coding 3
Codec ID                                 : A_AC3
Duration                                 : 2 h 12 min
Bit rate mode                            : Constant
Bit rate                                 : 640 kb/s
Channel(s)                               : 6 channels
Channel positions                        : Front: L C R, Side: L R, LFE
Sampling rate                            : 48.0 kHz
Frame rate                               : 31.250 FPS (1536 SPF)
Bit depth                                : 16 bits
Compression mode                         : Lossy
Delay relative to video                  : 1 s 31 ms
Stream size                              : 607 MiB (2%)
Language                                 : English
Service kind                             : Complete Main
Default                                  : No
Forced                                   : No

Audio #4
ID                                       : 5
Format                                   : AC-3
Format/Info                              : Audio Coding 3
Codec ID                                 : A_AC3
Duration                                 : 2 h 12 min
Bit rate mode                            : Constant
Bit rate                                 : 640 kb/s
Channel(s)                               : 6 channels
Channel positions                        : Front: L C R, Side: L R, LFE
Sampling rate                            : 48.0 kHz
Frame rate                               : 31.250 FPS (1536 SPF)
Bit depth                                : 16 bits
Compression mode                         : Lossy
Delay relative to video                  : 1 s 31 ms
Stream size                              : 607 MiB (2%)
Language                                 : French
Service kind                             : Complete Main
Default                                  : No
Forced                                   : No

Audio #5
ID                                       : 6
Format                                   : AC-3
Format/Info                              : Audio Coding 3
Codec ID                                 : A_AC3
Duration                                 : 2 h 12 min
Bit rate mode                            : Constant
Bit rate                                 : 640 kb/s
Channel(s)                               : 6 channels
Channel positions                        : Front: L C R, Side: L R, LFE
Sampling rate                            : 48.0 kHz
Frame rate                               : 31.250 FPS (1536 SPF)
Bit depth                                : 16 bits
Compression mode                         : Lossy
Delay relative to video                  : 1 s 31 ms
Stream size                              : 607 MiB (2%)
Language                                 : Spanish
Service kind                             : Complete Main
Default                                  : No
Forced                                   : No

Text #1
ID                                       : 7
Format                                   : PGS
Muxing mode                              : zlib
Codec ID                                 : S_HDMV/PGS
Codec ID/Info                            : Picture based subtitle format used on BDs/HD-DVDs
Duration                                 : 2 h 6 min
Bit rate                                 : 42.7 kb/s
Count of elements                        : 3468
Stream size                              : 38.6 MiB (0%)
Title                                    : English-PGS
Language                                 : English
Default                                  : No
Forced                                   : No

Text #2
ID                                       : 8
Format                                   : PGS
Muxing mode                              : zlib
Codec ID                                 : S_HDMV/PGS
Codec ID/Info                            : Picture based subtitle format used on BDs/HD-DVDs
Duration                                 : 2 h 3 min
Bit rate                                 : 38.0 kb/s
Count of elements                        : 3008
Stream size                              : 33.5 MiB (0%)
Title                                    : English-SDH-PGS
Language                                 : English
Default                                  : No
Forced                                   : No

Text #3
ID                                       : 9
Format                                   : PGS
Muxing mode                              : zlib
Codec ID                                 : S_HDMV/PGS
Codec ID/Info                            : Picture based subtitle format used on BDs/HD-DVDs
Duration                                 : 2 h 9 min
Bit rate                                 : 41.9 kb/s
Count of elements                        : 3418
Stream size                              : 38.8 MiB (0%)
Title                                    : French-PGS
Language                                 : French
Default                                  : No
Forced                                   : No

Text #4
ID                                       : 10
Format                                   : PGS
Muxing mode                              : zlib
Codec ID                                 : S_HDMV/PGS
Codec ID/Info                            : Picture based subtitle format used on BDs/HD-DVDs
Duration                                 : 2 h 11 min
Bit rate                                 : 4 303 b/s
Count of elements                        : 468
Stream size                              : 4.04 MiB (0%)
Title                                    : French-FORCED-PGS
Language                                 : French
Default                                  : No
Forced                                   : No

Text #5
ID                                       : 11
Format                                   : PGS
Muxing mode                              : zlib
Codec ID                                 : S_HDMV/PGS
Codec ID/Info                            : Picture based subtitle format used on BDs/HD-DVDs
Duration                                 : 2 h 11 min
Bit rate                                 : 34.9 kb/s
Count of elements                        : 2892
Stream size                              : 32.8 MiB (0%)
Title                                    : Spanish-PGS
Language                                 : Spanish
Default                                  : No
Forced                                   : No



All.the.Money.in.the.World.2017.2160p.WEBRip.x265.10bit.HDR.DTS-HD.MA.5.1.torrent

76.05 KB, 下载次数: 9

电影交流QQ群: 498117193
您需要登录后才可以回帖 登录 | 注册

本版积分规则

小黑屋|手机版|BT探索

GMT+8, 2018-5-28 15:53

Powered by Discuz! X3.2

© 2001-2013 Comsenz Inc.

快速回复 返回顶部 返回列表