BT探索

 找回密码
 注册
搜索
查看: 231|回复: 0

[日韩] 骗子.The.Swindlers.2017.KOREAN.720p.BluRay.x264-WiKi.韩语简繁中字.5.46 GB

[复制链接]

3万

主题

4万

帖子

11万

影币

管理员

Rank: 8Rank: 8Rank: 8Rank: 8Rank: 8Rank: 8Rank: 8Rank: 8

积分
116666
注册时间
2010-9-1
最后登录
2018-5-26

Medal No.1Medal No.2Medal No.3Medal No.4Medal No.5Medal No.6Medal No.7Medal No.8Medal No.9Medal No.10

发表于 2018-4-23 08:36:35 | 显示全部楼层 |阅读模式
海报


导演: 张昌原
编剧: 张昌原
主演: 玄彬 / 刘智泰 / 朴圣雄 / 裴晟祐 / 崔德门 / 林珍娜 / 安世河 / 许成泰 / 柳圣贤 / 崔日华 / 金溙勋 / 廉东宪 / 郑东奎 / 崔宏一 / 金子英 / 周锡泰 / 郑敏圣 / 韩哲宇 / 全宪泰 / 李载求 / 柳正浩 / 孙炳旭 / 郑镇荣 / 车顺裴 / 吴泰京 / 陈善圭
类型: 剧情 / 犯罪
制片国家/地区: 韩国
语言: 韩语
上映日期: 2017-11-22(韩国)
片长: 117分钟
又名: 骗徒(台) / 骗中骗(港) / Conman / The Swindlers
IMDb链接: tt7243686

骗子的剧情简介 · · · · · ·
  为了逮捕涉及4万亿韩元、造成3万名受害者的稀世大骗子,诈骗犯(玄彬饰)和检察官展开较量的诈骗犯罪。玄彬将在片中饰演设下完美骗局的诈骗犯黄智成,是一位专挑诈骗犯行骗的天才诈骗犯;刘智泰在片中饰演劣性检察官朴熙洙,为抓住稀世大骗子而制定计划招揽黄智成,表面正义内里却是对权力有无尽欲望的人。电影新颖、烧脑的故事令人耳目一新,而两位演技派演员的互相飙戏也引发众多期待。电影计划于2016年下半年拍摄。

截图





Video
ID                                       : 1
Format                                   : AVC
Format/Info                              : Advanced Video Codec
Format profile                           : High@L4.1
Format settings                          : CABAC / 12 Ref Frames
Format settings, CABAC                   : Yes
Format settings, ReFrames                : 12 frames
Codec ID                                 : V_MPEG4/ISO/AVC
Duration                                 : 1 h 56 min
Bit rate                                 : 6 049 kb/s
Width                                    : 1 280 pixels
Height                                   : 536 pixels
Display aspect ratio                     : 2.40:1
Frame rate mode                          : Constant
Frame rate                               : 24.000 FPS
Color space                              : YUV
Chroma subsampling                       : 4:2:0
Bit depth                                : 8 bits
Scan type                                : Progressive
Bits/(Pixel*Frame)                       : 0.367
Stream size                              : 4.94 GiB (90%)
Writing library                          : x264 core 129 r2245 bc13772
Encoding settings                        : cabac=1 / ref=12 / deblock=1:-3:-3 / analyse=0x3:0x133 / me=umh / subme=11 / psy=1 / psy_rd=1.05:0.05 / mixed_ref=1 / me_range=32 / chroma_me=1 / trellis=2 / 8x8dct=1 / cqm=0 / deadzone=21,11 / fast_pskip=0 / chroma_qp_offset=-3 / threads=12 / lookahead_threads=2 / sliced_threads=0 / nr=0 / decimate=1 / interlaced=0 / bluray_compat=0 / constrained_intra=0 / bframes=8 / b_pyramid=2 / b_adapt=2 / b_bias=0 / direct=3 / weightb=1 / open_gop=0 / weightp=2 / keyint=250 / keyint_min=24 / scenecut=40 / intra_refresh=0 / rc_lookahead=60 / rc=2pass / mbtree=1 / bitrate=6049 / ratetol=1.0 / qcomp=0.60 / qpmin=0 / qpmax=69 / qpstep=4 / cplxblur=20.0 / qblur=0.5 / ip_ratio=1.40 / aq=1:0.65
Language                                 : English
Default                                  : Yes
Forced                                   : No

Audio
ID                                       : 2
Format                                   : AC-3
Format/Info                              : Audio Coding 3
Codec ID                                 : A_AC3
Duration                                 : 1 h 56 min
Bit rate mode                            : Constant
Bit rate                                 : 640 kb/s
Channel(s)                               : 6 channels
Channel positions                        : Front: L C R, Side: L R, LFE
Sampling rate                            : 48.0 kHz
Frame rate                               : 31.250 FPS (1536 SPF)
Bit depth                                : 16 bits
Compression mode                         : Lossy
Stream size                              : 536 MiB (10%)
Language                                 : Korean
Service kind                             : Complete Main
Default                                  : Yes
Forced                                   : No

Text #1
ID                                       : 3
Format                                   : UTF-8
Codec ID                                 : S_TEXT/UTF8
Codec ID/Info                            : UTF-8 Plain Text
Duration                                 : 1 h 51 min
Bit rate                                 : 43 b/s
Count of elements                        : 1420
Stream size                              : 35.2 KiB (0%)
Title                                    : 港式简体
Language                                 : Chinese
Default                                  : Yes
Forced                                   : No

Text #2
ID                                       : 4
Format                                   : UTF-8
Codec ID                                 : S_TEXT/UTF8
Codec ID/Info                            : UTF-8 Plain Text
Duration                                 : 1 h 51 min
Bit rate                                 : 42 b/s
Count of elements                        : 1421
Stream size                              : 35.2 KiB (0%)
Title                                    : 港式繁体
Language                                 : Chinese
Default                                  : No
Forced                                   : No

Text #3
ID                                       : 5
Format                                   : UTF-8
Codec ID                                 : S_TEXT/UTF8
Codec ID/Info                            : UTF-8 Plain Text
Duration                                 : 1 h 51 min
Bit rate                                 : 45 b/s
Count of elements                        : 1651
Stream size                              : 37.4 KiB (0%)
Title                                    : 台式简体
Language                                 : Chinese
Default                                  : No
Forced                                   : No

Text #4
ID                                       : 6
Format                                   : UTF-8
Codec ID                                 : S_TEXT/UTF8
Codec ID/Info                            : UTF-8 Plain Text
Duration                                 : 1 h 51 min
Bit rate                                 : 45 b/s
Count of elements                        : 1651
Stream size                              : 37.4 KiB (0%)
Title                                    : 台式繁体
Language                                 : Chinese
Default                                  : No
Forced                                   : No


骗子.The.Swindlers.2017.KOREAN.720p.BluRay.x264-WiKi.韩语简繁中字.5.46 GB.torrent

55.15 KB, 下载次数: 67

骗子.The.Swindlers.2017.KOREAN.720p.BluRay.x264-WiKi.韩语简繁中字.5.46 GB

电影交流QQ群: 498117193
您需要登录后才可以回帖 登录 | 注册

本版积分规则

小黑屋|手机版|BT探索

GMT+8, 2018-5-27 09:27

Powered by Discuz! X3.2

© 2001-2013 Comsenz Inc.

快速回复 返回顶部 返回列表