BT探索

 找回密码
 注册
搜索
查看: 155|回复: 0

[HDR] 雪人.The.Snowman.2017.2160p.WEBRip.x265.10bit.HDR.DTS-HD.MA.7.1-GASMASK.33.06 GB

[复制链接]

3万

主题

4万

帖子

11万

影币

管理员

Rank: 8Rank: 8Rank: 8Rank: 8Rank: 8Rank: 8Rank: 8Rank: 8

积分
116953
注册时间
2010-9-1
最后登录
2018-5-28

Medal No.1Medal No.2Medal No.3Medal No.4Medal No.5Medal No.6Medal No.7Medal No.8Medal No.9Medal No.10

发表于 2018-4-25 17:17:30 | 显示全部楼层 |阅读模式
海报


导演: 托马斯·阿尔弗莱德森
编剧: 霍辛·阿米尼 / 彼特·斯特劳恩 / 尤·奈斯博
主演: 迈克尔·法斯宾德 / 丽贝卡·弗格森 / 詹姆斯·达西 / 科洛·塞维尼 / 方·基默 / J·K·西蒙斯 / 杰米·克莱顿 / 夏洛特·甘斯布 / 托比·琼斯 / 大卫·丹席克 / 索菲亚·海林 / 雅各布·奥福特布罗 / 罗南·维博特 / 安妮·雷德 / 亚力克·纽曼
类型: 剧情 / 悬疑 / 惊悚 / 犯罪
制片国家/地区: 英国 / 美国 / 瑞典
语言: 英语
上映日期: 2017-10-13(英国) / 2017-10-20(美国)
片长: 119分钟
又名: 雪中罪(港)
IMDb链接: tt1758810

雪人的剧情简介 · · · · · ·
  《雪人》根据挪威作家尤·奈斯博在2007年出版的同名畅销小说改编,这部书是他以奥斯陆侦探哈利·霍勒(Harry Hole)为主角创作的第七本小说。故事主要讲述哈利在调查一位年轻妈妈失踪案件的时候,发现受害人院子里出现了一个神秘的雪人,而且它脖子上还围着这家孩子送给妈妈做 圣诞礼物的粉红围巾。由此,哈里挖出了一系列有着相同情况的陈年旧案,一个总爱在落下第一场雪时作案的连环杀人犯浮出了水面……
  《雪人》将由环球公司和Working Title公司联合摄制,如果影片反响良好的话,尤·奈斯博的另外六部侦探哈里小说也将有机会登上大银幕。

截图




Video
ID                                       : 1
Format                                   : HEVC
Format/Info                              : High Efficiency Video Coding
Format profile                           : Main 10@L5@Main
Codec ID                                 : V_MPEGH/ISO/HEVC
Duration                                 : 1 h 59 min
Bit rate                                 : 31.6 Mb/s
Width                                    : 3 840 pixels
Height                                   : 2 160 pixels
Display aspect ratio                     : 16:9
Frame rate mode                          : Constant
Frame rate                               : 23.976 (24000/1001) FPS
Color space                              : YUV
Chroma subsampling                       : 4:2:0
Bit depth                                : 10 bits
Bits/(Pixel*Frame)                       : 0.159
Stream size                              : 26.4 GiB (80%)
Default                                  : Yes
Forced                                   : No
Color range                              : Limited
Color primaries                          : BT.2020
Transfer characteristics                 : PQ
Matrix coefficients                      : BT.2020 non-constant
Mastering display color primaries        : Display P3
Mastering display luminance              : min: 0.0050 cd/m2, max: 1000 cd/m2

Audio #1
ID                                       : 2
Format                                   : DTS
Format/Info                              : Digital Theater Systems
Format profile                           : MA / Core
Codec ID                                 : A_DTS
Duration                                 : 1 h 59 min
Bit rate mode                            : Variable / Constant
Bit rate                                 : 4 976 kb/s / 1 509 kb/s
Channel(s)                               : 8 channels / 6 channels
Channel positions                        : Front: L C R, Side: L R, Back: L R, LFE / Front: L C R, Side: L R, LFE
Sampling rate                            : 48.0 kHz
Frame rate                               : 93.750 FPS (512 SPF)
Bit depth                                : 24 bits
Compression mode                         : Lossless / Lossy
Delay relative to video                  : 6 ms
Stream size                              : 4.14 GiB (13%)
Language                                 : English
Default                                  : Yes
Forced                                   : No

Audio #2
ID                                       : 3
Format                                   : DTS
Format/Info                              : Digital Theater Systems
Codec ID                                 : A_DTS
Duration                                 : 1 h 59 min
Bit rate mode                            : Constant
Bit rate                                 : 1 509 kb/s
Channel(s)                               : 6 channels
Channel positions                        : Front: L C R, Side: L R, LFE
Sampling rate                            : 48.0 kHz
Frame rate                               : 93.750 FPS (512 SPF)
Bit depth                                : 24 bits
Compression mode                         : Lossy
Delay relative to video                  : 6 ms
Stream size                              : 1.26 GiB (4%)
Language                                 : English
Default                                  : No
Forced                                   : No

Audio #3
ID                                       : 4
Format                                   : DTS
Format/Info                              : Digital Theater Systems
Codec ID                                 : A_DTS
Duration                                 : 1 h 59 min
Bit rate mode                            : Constant
Bit rate                                 : 768 kb/s
Channel(s)                               : 6 channels
Channel positions                        : Front: L C R, Side: L R, LFE
Sampling rate                            : 48.0 kHz
Frame rate                               : 93.750 FPS (512 SPF)
Bit depth                                : 24 bits
Compression mode                         : Lossy
Delay relative to video                  : 7 ms
Stream size                              : 655 MiB (2%)
Language                                 : French
Default                                  : No
Forced                                   : No

Audio #4
ID                                       : 5
Format                                   : DTS
Format/Info                              : Digital Theater Systems
Codec ID                                 : A_DTS
Duration                                 : 1 h 59 min
Bit rate mode                            : Constant
Bit rate                                 : 768 kb/s
Channel(s)                               : 6 channels
Channel positions                        : Front: L C R, Side: L R, LFE
Sampling rate                            : 48.0 kHz
Frame rate                               : 93.750 FPS (512 SPF)
Bit depth                                : 24 bits
Compression mode                         : Lossy
Delay relative to video                  : 7 ms
Stream size                              : 655 MiB (2%)
Language                                 : Spanish
Default                                  : No
Forced                                   : No

Text #1
ID                                       : 6
Format                                   : PGS
Muxing mode                              : zlib
Codec ID                                 : S_HDMV/PGS
Codec ID/Info                            : Picture based subtitle format used on BDs/HD-DVDs
Duration                                 : 1 h 53 min
Bit rate                                 : 29.1 kb/s
Count of elements                        : 2396
Stream size                              : 23.6 MiB (0%)
Title                                    : English-PGS
Language                                 : English
Default                                  : No
Forced                                   : No

Text #2
ID                                       : 7
Format                                   : PGS
Muxing mode                              : zlib
Codec ID                                 : S_HDMV/PGS
Codec ID/Info                            : Picture based subtitle format used on BDs/HD-DVDs
Duration                                 : 1 h 58 min
Bit rate                                 : 24.5 kb/s
Count of elements                        : 2038
Stream size                              : 20.7 MiB (0%)
Title                                    : French-PGS
Language                                 : French
Default                                  : No
Forced                                   : No

Text #3
ID                                       : 8
Format                                   : PGS
Muxing mode                              : zlib
Codec ID                                 : S_HDMV/PGS
Codec ID/Info                            : Picture based subtitle format used on BDs/HD-DVDs
Duration                                 : 1 h 48 min
Bit rate                                 : 1 062 b/s
Count of elements                        : 80
Stream size                              : 847 KiB (0%)
Title                                    : French-FORCED-PGS
Language                                 : French
Default                                  : No
Forced                                   : No

Text #4
ID                                       : 9
Format                                   : PGS
Muxing mode                              : zlib
Codec ID                                 : S_HDMV/PGS
Codec ID/Info                            : Picture based subtitle format used on BDs/HD-DVDs
Duration                                 : 1 h 58 min
Bit rate                                 : 23.0 kb/s
Count of elements                        : 2145
Stream size                              : 19.5 MiB (0%)
Title                                    : Spanish-PGS
Language                                 : Spanish
Default                                  : No
Forced                                   : No

Text #5
ID                                       : 10
Format                                   : PGS
Muxing mode                              : zlib
Codec ID                                 : S_HDMV/PGS
Codec ID/Info                            : Picture based subtitle format used on BDs/HD-DVDs
Duration                                 : 1 h 48 min
Bit rate                                 : 1 625 b/s
Count of elements                        : 110
Stream size                              : 1.27 MiB (0%)
Title                                    : Spanish-FORCED-PGS
Language                                 : Spanish
Default                                  : No
Forced                                   : No


The.Snowman.2017.2160p.WEBRip.x265.10bit.HDR.DTS-HD.MA.7.1.torrent

83.23 KB, 下载次数: 9

电影交流QQ群: 498117193
您需要登录后才可以回帖 登录 | 注册

本版积分规则

小黑屋|手机版|BT探索

GMT+8, 2018-5-28 15:55

Powered by Discuz! X3.2

© 2001-2013 Comsenz Inc.

快速回复 返回顶部 返回列表