BT探索

 找回密码
 注册
查看: 339|回复: 0

[欧美] 忍者蝙蝠侠.Batman.Ninja.2018.720p.WEB-DL.DD5.1.H264-FGT.2.61 GB

[复制链接]

3万

主题

4万

帖子

13万

影币

管理员

Rank: 8Rank: 8Rank: 8Rank: 8Rank: 8Rank: 8Rank: 8Rank: 8

积分
130621
注册时间
2010-9-1
最后登录
2018-8-15

Medal No.1Medal No.2Medal No.3Medal No.4Medal No.5Medal No.6Medal No.7Medal No.8Medal No.9Medal No.10

发表于 2018-4-25 17:21:22 | 显示全部楼层 |阅读模式
海报


导演: 水崎淳平
编剧: 中岛一树 / Eric Garcia / Leo Chu
主演: 山寺宏一 / 高木涉 / 加隈亚衣 / 钉宫理惠
类型: 动画
官方网站: wwws.warnerbros.co.jp/batman-ninja/
制片国家/地区: 美国 / 日本
语言: 英语 / 日语
上映日期: 2018-05-08(美国) / 2018-06-15(日本)
片长: 85分钟
又名: ニンジャバットマン
IMDb链接: tt7451284

忍者蝙蝠侠的剧情简介 · · · · · ·
  NYCC上的一份名单显示,2018年中,华纳兄弟将与“爆炸头武士”(日本漫画家冈崎能士)合作创作蝙蝠侠的新动画电影《忍者蝙蝠侠》.

截图





Video
ID                                       : 1
Format                                   : AVC
Format/Info                              : Advanced Video Codec
Format profile                           : High@L3.1
Format settings                          : 2 Ref Frames
Format settings, CABAC                   : No
Format settings, ReFrames                : 2 frames
Codec ID                                 : V_MPEG4/ISO/AVC
Duration                                 : 1 h 25 min
Bit rate                                 : 3 994 kb/s
Width                                    : 1 280 pixels
Height                                   : 720 pixels
Display aspect ratio                     : 16:9
Frame rate mode                          : Constant
Frame rate                               : 23.976 (24000/1001) FPS
Color space                              : YUV
Chroma subsampling                       : 4:2:0
Bit depth                                : 8 bits
Scan type                                : Progressive
Bits/(Pixel*Frame)                       : 0.181
Stream size                              : 2.38 GiB (91%)
Title                                    : Batman.Ninja.2018.720p.WEB-DL.DD5.1.H264-FGT
Language                                 : English
Default                                  : Yes
Forced                                   : No
Color range                              : Limited
Color primaries                          : BT.709
Transfer characteristics                 : BT.709
Matrix coefficients                      : BT.709

Audio
ID                                       : 2
Format                                   : AC-3
Format/Info                              : Audio Coding 3
Codec ID                                 : A_AC3
Duration                                 : 1 h 25 min
Bit rate mode                            : Constant
Bit rate                                 : 384 kb/s
Channel(s)                               : 6 channels
Channel positions                        : Front: L C R, Side: L R, LFE
Sampling rate                            : 48.0 kHz
Frame rate                               : 31.250 FPS (1536 SPF)
Bit depth                                : 16 bits
Compression mode                         : Lossy
Stream size                              : 234 MiB (9%)
Title                                    : Batman.Ninja.2018.720p.WEB-DL.DD5.1.H264-FGT
Language                                 : English
Service kind                             : Complete Main
Default                                  : Yes
Forced                                   : No

Text
ID                                       : 3
Format                                   : UTF-8
Codec ID                                 : S_TEXT/UTF8
Codec ID/Info                            : UTF-8 Plain Text
Duration                                 : 1 h 21 min
Bit rate                                 : 46 b/s
Count of elements                        : 857
Stream size                              : 28.1 KiB (0%)
Language                                 : English
Default                                  : Yes
Forced                                   : No

Menu
00:00:00.000                             : en:1
00:08:31.000                             : en:2
00:22:30.000                             : en:3
00:31:12.000                             : en:4
00:42:46.000                             : en:5
00:51:33.000                             : en:6
01:01:01.000                             : en:7
01:12:15.000                             : en:8
01:20:28.000                             : en:9


Batman.Ninja.2018.720p.WEB-DL.DD5.1.H264.torrent

52.71 KB, 下载次数: 40

电影交流QQ群: 498117193
您需要登录后才可以回帖 登录 | 注册

本版积分规则

BT探索

GMT+8, 2018-8-16 03:22

Powered by Discuz! X3.2

© 2001-2013 Comsenz Inc.

快速回复 返回顶部 返回列表