BT探索

 找回密码
 注册
查看: 354|回复: 0

[欧美] 异形魔怪:极寒之日.Tremors.A.Cold.Day.in.Hell.2018.720p.BluRay.x264.DTS-MT.5.38GB

[复制链接]

3万

主题

4万

帖子

13万

影币

管理员

Rank: 8Rank: 8Rank: 8Rank: 8Rank: 8Rank: 8Rank: 8Rank: 8

积分
130621
注册时间
2010-9-1
最后登录
2018-8-15

Medal No.1Medal No.2Medal No.3Medal No.4Medal No.5Medal No.6Medal No.7Medal No.8Medal No.9Medal No.10

发表于 2018-4-25 17:24:45 | 显示全部楼层 |阅读模式
海报


导演: Don Michael Paul
编剧: John Whelpley
主演: 杰米·肯尼迪
类型: 喜剧 / 动作 / 恐怖
制片国家/地区: 美国
语言: 英语
上映日期: 2018-05-01(美国)
片长: 98分钟
IMDb链接: tt6086082

异形魔怪:极寒之日简介
The sequel finds Burt Gummer and his son Travis at a remote research station| where they must go up against Graboids that have been converted into living weapons.


截图





Video
ID                                       : 1
Format                                   : AVC
Format/Info                              : Advanced Video Codec
Format profile                           : High@L4.1
Format settings                          : CABAC / 9 Ref Frames
Format settings, CABAC                   : Yes
Format settings, ReFrames                : 9 frames
Codec ID                                 : V_MPEG4/ISO/AVC
Duration                                 : 1 h 37 min
Bit rate                                 : 6 354 kb/s
Width                                    : 1 280 pixels
Height                                   : 720 pixels
Display aspect ratio                     : 16:9
Frame rate mode                          : Constant
Frame rate                               : 23.976 (24000/1001) FPS
Color space                              : YUV
Chroma subsampling                       : 4:2:0
Bit depth                                : 8 bits
Scan type                                : Progressive
Bits/(Pixel*Frame)                       : 0.288
Stream size                              : 4.35 GiB (81%)
Default                                  : Yes
Forced                                   : No

Audio
ID                                       : 2
Format                                   : DTS
Format/Info                              : Digital Theater Systems
Codec ID                                 : A_DTS
Duration                                 : 1 h 37 min
Bit rate mode                            : Constant
Bit rate                                 : 1 509 kb/s
Channel(s)                               : 6 channels
Channel positions                        : Front: L C R, Side: L R, LFE
Sampling rate                            : 48.0 kHz
Frame rate                               : 93.750 FPS (512 SPF)
Bit depth                                : 24 bits
Compression mode                         : Lossy
Stream size                              : 1.03 GiB (19%)
Title                                    : English
Language                                 : English
Default                                  : Yes
Forced                                   : No



Tremors.A.Cold.Day.in.Hell.2018.720p.BluRay.x264.DTS.torrent

54.36 KB, 下载次数: 87

电影交流QQ群: 498117193
您需要登录后才可以回帖 登录 | 注册

本版积分规则

BT探索

GMT+8, 2018-8-16 03:22

Powered by Discuz! X3.2

© 2001-2013 Comsenz Inc.

快速回复 返回顶部 返回列表