BT探索

 找回密码
 注册
查看: 528|回复: 0

[欧美] 忍者蝙蝠侠.Batman.Ninja.2018.720p.BluRay.x264.DTS-MT.4.37 GB

[复制链接]

3万

主题

4万

帖子

13万

影币

管理员

Rank: 8Rank: 8Rank: 8Rank: 8Rank: 8Rank: 8Rank: 8Rank: 8

积分
130621
注册时间
2010-9-1
最后登录
2018-8-15

Medal No.1Medal No.2Medal No.3Medal No.4Medal No.5Medal No.6Medal No.7Medal No.8Medal No.9Medal No.10

发表于 2018-4-26 19:05:51 | 显示全部楼层 |阅读模式
海报


导演: 水崎淳平
编剧: 中岛一树 / Eric Garcia / Leo Chu
主演: 山寺宏一 / 高木涉 / 加隈亚衣 / 钉宫理惠
类型: 动画
官方网站: wwws.warnerbros.co.jp/batman-ninja/
制片国家/地区: 美国 / 日本
语言: 英语 / 日语
上映日期: 2018-05-08(美国) / 2018-06-15(日本)
片长: 85分钟
又名: ニンジャバットマン
IMDb链接: tt7451284

忍者蝙蝠侠的剧情简介 · · · · · ·
  NYCC上的一份名单显示,2018年中,华纳兄弟将与“爆炸头武士”(日本漫画家冈崎能士)合作创作蝙蝠侠的新动画电影《忍者蝙蝠侠》.

截图




Video
ID                                       : 1
Format                                   : AVC
Format/Info                              : Advanced Video Codec
Format profile                           : High@L4.1
Format settings                          : CABAC / 12 Ref Frames
Format settings, CABAC                   : Yes
Format settings, ReFrames                : 12 frames
Codec ID                                 : V_MPEG4/ISO/AVC
Duration                                 : 1 h 25 min
Bit rate                                 : 5 821 kb/s
Width                                    : 1 280 pixels
Height                                   : 720 pixels
Display aspect ratio                     : 16:9
Frame rate mode                          : Constant
Frame rate                               : 23.976 (24000/1001) FPS
Color space                              : YUV
Chroma subsampling                       : 4:2:0
Bit depth                                : 8 bits
Scan type                                : Progressive
Bits/(Pixel*Frame)                       : 0.263
Stream size                              : 3.47 GiB (79%)
Title                                    : Batman.Ninja.2018.720p.BluRay.x264.DTS-MT
Writing library                          : x264 core 155 r2901 7d0ff22
Encoding settings                        : cabac=1 / ref=12 / deblock=1:-3:-3 / analyse=0x3:0x113 / me=umh / subme=10 / psy=1 / psy_rd=1.05:0.10 / mixed_ref=1 / me_range=32 / chroma_me=1 / trellis=2 / 8x8dct=1 / cqm=0 / deadzone=21,11 / fast_pskip=0 / chroma_qp_offset=-2 / threads=12 / lookahead_threads=1 / sliced_threads=0 / nr=0 / decimate=1 / interlaced=0 / bluray_compat=0 / constrained_intra=0 / bframes=6 / b_pyramid=2 / b_adapt=2 / b_bias=0 / direct=3 / weightb=1 / open_gop=0 / weightp=2 / keyint=250 / keyint_min=23 / scenecut=40 / intra_refresh=0 / rc=2pass / mbtree=0 / bitrate=5821 / ratetol=1.0 / qcomp=0.70 / qpmin=0 / qpmax=69 / qpstep=4 / cplxblur=20.0 / qblur=0.5 / ip_ratio=1.40 / pb_ratio=1.30 / aq=3:1.00
Default                                  : Yes
Forced                                   : No

Audio
ID                                       : 2
Format                                   : DTS
Format/Info                              : Digital Theater Systems
Codec ID                                 : A_DTS
Duration                                 : 1 h 25 min
Bit rate mode                            : Constant
Bit rate                                 : 1 509 kb/s
Channel(s)                               : 6 channels
Channel positions                        : Front: L C R, Side: L R, LFE
Sampling rate                            : 48.0 kHz
Frame rate                               : 93.750 FPS (512 SPF)
Bit depth                                : 24 bits
Compression mode                         : Lossy
Stream size                              : 920 MiB (21%)
Title                                    : Batman.Ninja.2018.720p.BluRay.x264.DTS-MT
Language                                 : English
Default                                  : Yes
Forced                                   : No

Text
ID                                       : 3
Format                                   : UTF-8
Codec ID                                 : S_TEXT/UTF8
Codec ID/Info                            : UTF-8 Plain Text
Duration                                 : 1 h 24 min
Bit rate                                 : 45 b/s
Count of elements                        : 880
Stream size                              : 28.3 KiB (0%)
Language                                 : English
Default                                  : Yes
Forced                                   : No

Menu
00:00:00.000                             : en:00:00:00.000
00:08:32.345                             : en:00:08:32.345
00:22:30.683                             : en:00:22:30.683
00:31:12.537                             : en:00:31:12.537
00:42:46.689                             : en:00:42:46.689
00:51:34.425                             : en:00:51:34.425
01:01:01.449                             : en:01:01:01.449
01:12:15.831                             : en:01:12:15.831
01:20:28.657                             : en:01:20:28.657

Batman.Ninja.2018.720p.BluRay.x264.DTS.torrent

87.87 KB, 下载次数: 31

电影交流QQ群: 498117193
您需要登录后才可以回帖 登录 | 注册

本版积分规则

BT探索

GMT+8, 2018-8-16 03:21

Powered by Discuz! X3.2

© 2001-2013 Comsenz Inc.

快速回复 返回顶部 返回列表