BT探索

 找回密码
 注册
查看: 366|回复: 1

[华语] 三生三世十里桃花.2017.720p.BluRay.x264.DTS-HDC.国语.4.98 GB

[复制链接]

4万

主题

4万

帖子

1万

在线时间

管理员

Rank: 8Rank: 8Rank: 8Rank: 8Rank: 8Rank: 8Rank: 8Rank: 8

积分
137117
注册时间
2010-9-1
最后登录
2018-10-19

Medal No.1Medal No.2Medal No.3Medal No.4Medal No.5Medal No.6Medal No.7Medal No.8Medal No.9Medal No.10

发表于 2018-5-3 14:29:53 | 显示全部楼层 |阅读模式
海报


导演: 赵小丁 / 安东尼·拉默里纳拉
编剧: 李晗 / 刘晗 / 麦灵 / 张亚亮 / 唐七
主演: 刘亦菲 / 杨洋 / 罗晋 / 严屹宽 / 李纯 / 顾璇 / 陈佩斯 / 彭子苏 / 张贺茗 / 王羽铮 / 塔拉
类型: 爱情 / 奇幻
制片国家/地区: 中国大陆
语言: 汉语普通话
上映日期: 2017-08-03(中国大陆)
片长: 109分钟
又名: Once Upon a Time
IMDb链接: tt6138688

三生三世十里桃花的剧情简介 · · · · · ·
  白浅(刘亦菲 饰)失去了上一世的记忆,盘踞在青丘山内,过着与世无争自由自在的生活。在东海盛宴上,白浅遇见了带着天孙阿离(彭子苏 饰)的天族太子夜华(杨洋 饰),实际上,两人之间早就定下了婚约。夜华震惊于白浅拥有的和他死去的妻子素素一模一样的外表,于是开始接近白浅,在此过程中被白浅善良开朗的性格渐渐吸引。
  实际上,白浅一直忘不了的是当年为了拯救众生而牺牲了自己的天族战神墨渊(杨洋 饰),他的仙体一直被保存在炎华洞内。夜华的侧妃素锦(李纯 饰)十分嫉妒白浅能够得到夜华的喜爱,于是勾结鬼族王后玄女(顾璇 饰)偷走了墨渊的仙体,得知此消息,白浅失去了理智。

三生三世十里桃花的获奖情况
第4届豆瓣电影年度榜单 8月最受关注电影(提名)
第3届豆瓣电影年度榜单 最值得期待的华语电影(提名)

截图





Video
ID                                       : 1
Format                                   : AVC
Format/Info                              : Advanced Video Codec
Format profile                           : [email protected]
Format settings                          : CABAC / 12 Ref Frames
Format settings, CABAC                   : Yes
Format settings, ReFrames                : 12 frames
Codec ID                                 : V_MPEG4/ISO/AVC
Duration                                 : 1 h 49 min
Bit rate                                 : 5 000 kb/s
Width                                    : 1 280 pixels
Height                                   : 536 pixels
Display aspect ratio                     : 2.40:1
Frame rate mode                          : Constant
Frame rate                               : 24.000 FPS
Color space                              : YUV
Chroma subsampling                       : 4:2:0
Bit depth                                : 8 bits
Scan type                                : Progressive
Bits/(Pixel*Frame)                       : 0.304
Stream size                              : 3.82 GiB (77%)
Title                                    : San.Sheng.San.Shi.Shi.Li.Tao.Hua.2017.720P.BluRay.x264.DTS-HDC
Writing library                          : x264 core 148 r2665kMod a01e339
Encoding settings                        : cabac=1 / ref=12 / deblock=1:-3:-3 / analyse=0x3:0x133 / me=umh / subme=11 / psy=1 / fade_compensate=0.00 / psy_rd=1.05:0.00 / mixed_ref=1 / me_range=32 / chroma_me=1 / trellis=2 / 8x8dct=1 / cqm=0 / deadzone=21,11 / fast_pskip=0 / chroma_qp_offset=-2 / threads=17 / lookahead_threads=2 / sliced_threads=0 / nr=0 / decimate=0 / interlaced=0 / bluray_compat=0 / constrained_intra=0 / fgo=0 / bframes=8 / b_pyramid=2 / b_adapt=2 / b_bias=0 / direct=3 / weightb=1 / open_gop=0 / weightp=2 / keyint=240 / keyint_min=24 / scenecut=40 / intra_refresh=0 / rc=2pass / mbtree=0 / bitrate=5000 / ratetol=1.0 / qcomp=0.70 / qpmin=0 / qpmax=69 / qpstep=4 / cplxblur=20.0 / qblur=0.5 / ip_ratio=1.20 / pb_ratio=1.20 / aq=3:0.85
Default                                  : Yes
Forced                                   : No

Audio
ID                                       : 2
Format                                   : DTS
Format/Info                              : Digital Theater Systems
Codec ID                                 : A_DTS
Duration                                 : 1 h 49 min
Bit rate mode                            : Constant
Bit rate                                 : 1 509 kb/s
Channel(s)                               : 6 channels
Channel positions                        : Front: L C R, Side: L R, LFE
Sampling rate                            : 48.0 kHz
Frame rate                               : 93.750 FPS (512 SPF)
Bit depth                                : 24 bits
Compression mode                         : Lossy
Delay relative to video                  : 2 s 0 ms
Stream size                              : 1.15 GiB (23%)
Title                                    : San.Sheng.San.Shi.Shi.Li.Tao.Hua.2017.720p.BluRay.x264.DTS-HDC
Language                                 : Chinese
Default                                  : Yes
Forced                                   : No

Text
ID                                       : 3
Format                                   : UTF-8
Codec ID                                 : S_TEXT/UTF8
Codec ID/Info                            : UTF-8 Plain Text
Duration                                 : 1 h 38 min
Bit rate                                 : 48 b/s
Count of elements                        : 1244
Stream size                              : 35.1 KiB (0%)
Title                                    : English
Language                                 : English
Default                                  : Yes
Forced                                   : Yes

Menu
00:00:00.000                             : en:00:00:00.000
00:07:35.917                             : en:00:07:35.917
00:15:06.875                             : en:00:15:06.875
00:24:02.500                             : en:00:24:02.500
00:36:01.750                             : en:00:36:01.750
00:43:22.708                             : en:00:43:22.708
00:50:34.042                             : en:00:50:34.042
01:00:30.208                             : en:01:00:30.208
01:12:22.792                             : en:01:12:22.792
01:21:38.500                             : en:01:21:38.500
01:30:19.042                             : en:01:30:19.042
01:40:58.583                             : en:01:40:58.583




三生三世十里桃花.2017.720p.BluRay.x264.DTS-HDC.国语.4.98 GB.torrent

100.11 KB, 下载次数: 44

三生三世十里桃花.2017.720p.BluRay.x264.DTS-HDC.国语.4.98 GB

0

主题

35

帖子

12 小时

在线时间

观众

Rank: 1

积分
45
注册时间
2018-6-13
最后登录
2018-9-29
发表于 2018-6-13 15:50:39 | 显示全部楼层
评分很惨,我来看看到底怎样
您需要登录后才可以回帖 登录 | 注册

本版积分规则

BT探索  

GMT+8, 2018-10-19 12:24

Powered by Discuz! X3.2

© 2001-2013 Comsenz Inc.

快速回复 返回顶部 返回列表