BT探索

 找回密码
 注册
查看: 197|回复: 0

[HDR] 比得兔.Peter.Rabbit.2018.2160p.BluRay.x265.10bit.HDR.TrueHD.7.1.Atmos.13.35 GB

[复制链接]

3万

主题

4万

帖子

13万

影币

管理员

Rank: 8Rank: 8Rank: 8Rank: 8Rank: 8Rank: 8Rank: 8Rank: 8

积分
130621
注册时间
2010-9-1
最后登录
2018-8-15

Medal No.1Medal No.2Medal No.3Medal No.4Medal No.5Medal No.6Medal No.7Medal No.8Medal No.9Medal No.10

发表于 2018-5-5 09:13:49 | 显示全部楼层 |阅读模式
海报


导演: 威尔·古勒
编剧: 威尔·古勒 / 罗伯·列博 / 碧翠丝·波特
主演: 詹姆斯·柯登 / 多姆纳尔·格里森 / 萝丝·拜恩 / 伊丽莎白·德比茨基 / 玛格特·罗比 / 黛西·雷德利 / 科林·穆迪 / 山姆·尼尔 / 希雅 / 伊文·莱斯利 / 费萨尔·巴齐 / 克里斯蒂安·加扎尔 / 玛丽安娜·琼-巴普蒂斯特 / 加雷斯·戴维斯 / 山姆·哈夫特 / 萨莎·霍勒 / 娜塔丽·朱 / 特伦尼娅·爱德华兹 / 费利克斯·威廉森 / 许明珠 / 布莱恩·布朗 / 雷切尔·沃德 / 大卫·文翰 / 威尔·赖歇尔特
类型: 喜剧 / 动画 / 冒险
官方网站: www.peterrabbit-movie.com
制片国家/地区: 美国 / 英国 / 澳大利亚
语言: 英语
上映日期: 2018-03-02(中国大陆) / 2018-02-09(美国)
片长: 95分钟
又名: 彼得兔
IMDb链接: tt5117670

比得兔的剧情简介 · · · · · ·
  电影《比得兔》是一部由英国百年经典IP改编的真人动画电影,影片讲述了田园冒险大王“比得兔”(詹姆斯·柯登 James Corden 配音)带领一众伙伴,与麦格雷戈(多姆纳尔·格里森 Domhnall Gleeson 饰)叔侄二人,为争夺菜园主权和隔壁美丽女主人贝伊(萝丝·拜恩 Rose Byrne 饰)的喜爱而斗智斗勇、各显神通的爆笑故事。随着人兔大战不断升级,一系列欢乐闹趣、令人捧腹、啼笑皆非的趣事也由此引发。

截图




Video
ID                                       : 1
Format                                   : HEVC
Format/Info                              : High Efficiency Video Coding
Format profile                           : Main 10@L5.1@High
Codec ID                                 : V_MPEGH/ISO/HEVC
Duration                                 : 1 h 34 min
Bit rate                                 : 14.5 Mb/s
Width                                    : 3 840 pixels
Height                                   : 1 606 pixels
Display aspect ratio                     : 2.40:1
Frame rate mode                          : Constant
Frame rate                               : 23.976 (24000/1001) FPS
Color space                              : YUV
Chroma subsampling                       : 4:2:0 (Type 2)
Bit depth                                : 10 bits
Bits/(Pixel*Frame)                       : 0.098
Stream size                              : 9.61 GiB (73%)
Writing library                          : x265 2.7+336-07defe235cde:[Windows][GCC 6.3.0][64 bit] 10bit
Encoding settings                        : cpuid=1111039 / frame-threads=5 / numa-pools=36 / wpp / no-pmode / no-pme / no-psnr / no-ssim / log-level=2 / input-csp=1 / input-res=3840x1606 / interlace=0 / total-frames=136248 / level-idc=51 / high-tier=1 / uhd-bd=0 / ref=4 / no-allow-non-conformance / repeat-headers / annexb / aud / hrd / info / hash=0 / no-temporal-layers / no-open-gop / min-keyint=1 / keyint=24 / gop-lookahead=0 / bframes=4 / b-adapt=2 / b-pyramid / bframe-bias=0 / rc-lookahead=25 / lookahead-slices=4 / scenecut=40 / radl=0 / no-intra-refresh / ctu=64 / min-cu-size=8 / rect / no-amp / max-tu-size=32 / tu-inter-depth=1 / tu-intra-depth=1 / limit-tu=0 / rdoq-level=2 / dynamic-rd=0.00 / no-ssim-rd / signhide / no-tskip / nr-intra=0 / nr-inter=0 / no-constrained-intra / no-strong-intra-smoothing / max-merge=3 / limit-refs=3 / limit-modes / me=3 / subme=3 / merange=57 / temporal-mvp / weightp / no-weightb / no-analyze-src-pics / deblock=-3:-3 / no-sao / no-sao-non-deblock / rd=4 / no-early-skip / rskip / no-fast-intra / no-tskip-fast / no-cu-lossless / no-b-intra / no-splitrd-skip / rdpenalty=0 / psy-rd=2.00 / psy-rdoq=1.00 / no-rd-refine / no-lossless / cbqpoffs=0 / crqpoffs=0 / rc=crf / crf=17.0 / qcomp=0.60 / qpstep=4 / stats-write=0 / stats-read=0 / vbv-maxrate=160000 / vbv-bufsize=160000 / vbv-init=0.9 / crf-max=0.0 / crf-min=0.0 / ipratio=1.40 / pbratio=1.30 / aq-mode=1 / aq-strength=1.00 / cutree / zone-count=0 / no-strict-cbr / qg-size=32 / no-rc-grain / qpmax=69 / qpmin=0 / no-const-vbv / sar=1 / overscan=0 / videoformat=5 / range=0 / colorprim=9 / transfer=16 / colormatrix=9 / chromaloc=1 / chromaloc-top=2 / chromaloc-bottom=2 / display-window=0 / master-display=G(13250,34500)B(7500,3000)R(34000,16000)WP(15635,16450)L(40000000,50) / max-cll=3991,240 / min-luma=0 / max-luma=1023 / log2-max-poc-lsb=8 / vui-timing-info / vui-hrd-info / slices=1 / no-opt-qp-pps / no-opt-ref-list-length-pps / no-multi-pass-opt-rps / scenecut-bias=0.05 / no-opt-cu-delta-qp / no-aq-motion / hdr / hdr-opt / no-dhdr10-opt / no-idr-recovery-sei / analysis-reuse-level=5 / scale-factor=0 / refine-intra=0 / refine-inter=0 / refine-mv=0 / no-limit-sao / ctu-info=0 / no-lowpass-dct / refine-mv-type=0 / copy-pic=1 / max-ausize-factor=1.0 / no-dynamic-refine / no-single-sei
Default                                  : Yes
Forced                                   : No
Color range                              : Limited
Color primaries                          : BT.2020
Transfer characteristics                 : PQ
Matrix coefficients                      : BT.2020 non-constant
Mastering display color primaries        : Display P3
Mastering display luminance              : min: 0.0050 cd/m2, max: 4000 cd/m2
Maximum Content Light Level              : 3991 cd/m2
Maximum Frame-Average Light Level        : 240 cd/m2

Audio #1
ID                                       : 2
Format                                   : TrueHD
Format profile                           : TrueHD+Atmos / TrueHD
Codec ID                                 : A_TRUEHD
Duration                                 : 1 h 34 min
Bit rate mode                            : Variable
Bit rate                                 : 4 603 kb/s
Maximum bit rate                         : 8 133 kb/s
Channel(s)                               : Object Based / 8 channels
Channel positions                        : Object Based / Front: L C R, Side: L R, Back: L R, LFE
Sampling rate                            :  / 48.0 kHz
Frame rate                               : 1 200.000 FPS (40 SPF)
Compression mode                         : Lossless
Stream size                              : 3.05 GiB (23%)
Language                                 : English
Default                                  : Yes
Forced                                   : No

Audio #2
ID                                       : 3
Format                                   : AC-3
Format/Info                              : Audio Coding 3
Codec ID                                 : A_AC3
Duration                                 : 1 h 34 min
Bit rate mode                            : Constant
Bit rate                                 : 640 kb/s
Channel(s)                               : 6 channels
Channel positions                        : Front: L C R, Side: L R, LFE
Sampling rate                            : 48.0 kHz
Frame rate                               : 31.250 FPS (1536 SPF)
Bit depth                                : 16 bits
Compression mode                         : Lossy
Stream size                              : 434 MiB (3%)
Service kind                             : Complete Main
Default                                  : No
Forced                                   : No

Text #1
ID                                       : 4
Format                                   : PGS
Muxing mode                              : zlib
Codec ID                                 : S_HDMV/PGS
Codec ID/Info                            : Picture based subtitle format used on BDs/HD-DVDs
Duration                                 : 1 h 26 min
Bit rate                                 : 53.8 kb/s
Count of elements                        : 3082
Stream size                              : 33.1 MiB (0%)
Language                                 : English
Default                                  : No
Forced                                   : No

Text #2
ID                                       : 5
Format                                   : PGS
Muxing mode                              : zlib
Codec ID                                 : S_HDMV/PGS
Codec ID/Info                            : Picture based subtitle format used on BDs/HD-DVDs
Duration                                 : 1 h 33 min
Bit rate                                 : 62.7 kb/s
Count of elements                        : 3901
Stream size                              : 42.1 MiB (0%)
Title                                    : SDH
Language                                 : English
Default                                  : No
Forced                                   : No

Menu
00:00:00.000                             : en:00:00:00.000
00:04:04.786                             : en:00:04:04.786
00:08:26.297                             : en:00:08:26.297
00:15:11.702                             : en:00:15:11.702
00:21:00.634                             : en:00:21:00.634
00:25:43.584                             : en:00:25:43.584
00:30:50.265                             : en:00:30:50.265
00:38:00.862                             : en:00:38:00.862
00:44:37.341                             : en:00:44:37.341
00:50:07.671                             : en:00:50:07.671
00:56:21.295                             : en:00:56:21.295
01:01:07.581                             : en:01:01:07.581
01:07:02.560                             : en:01:07:02.560
01:10:30.810                             : en:01:10:30.810
01:14:35.137                             : en:01:14:35.137
01:21:51.990                             : en:01:21:51.990



Peter.Rabbit.2018.2160p.BluRay.x265.10bit.HDR.TrueHD.7.1.Atmos.torrent

67.4 KB, 下载次数: 13

电影交流QQ群: 498117193
您需要登录后才可以回帖 登录 | 注册

本版积分规则

BT探索

GMT+8, 2018-8-16 03:22

Powered by Discuz! X3.2

© 2001-2013 Comsenz Inc.

快速回复 返回顶部 返回列表