BT探索

 找回密码
 注册
搜索
查看: 121|回复: 3

[Remux] 黑豹.Black.Panther.2018.1080p.BluRay.REMUX.AVC.DTS-HD.MA.7.1-FGT.30.06 GB

[复制链接]

3万

主题

4万

帖子

11万

影币

管理员

Rank: 8Rank: 8Rank: 8Rank: 8Rank: 8Rank: 8Rank: 8Rank: 8

积分
116666
注册时间
2010-9-1
最后登录
2018-5-26

Medal No.1Medal No.2Medal No.3Medal No.4Medal No.5Medal No.6Medal No.7Medal No.8Medal No.9Medal No.10

发表于 2018-5-6 08:43:09 | 显示全部楼层 |阅读模式
海报


导演: 瑞恩·库格勒
编剧: 瑞恩·库格勒 / 乔·罗伯特·科尔 / 斯坦·李 / 杰克·科比
主演: 查德维克·博斯曼 / 露皮塔·尼永奥 / 迈克尔·B·乔丹 / 丹娜·奎里拉 / 马丁·弗瑞曼 / 丹尼尔·卡卢亚 / 利蒂希娅·赖特 / 温斯顿·杜克 / 斯特林·K·布朗 / 安吉拉·贝塞特 / 福里斯特·惠特克 / 安迪·瑟金斯 / 弗洛伦丝·卡松巴 / 约翰·卡尼 / 大卫·S.李 / 娜比娅·毕
类型: 动作 / 科幻 / 冒险
制片国家/地区: 美国
语言: 英语 / 韩语
上映日期: 2018-03-09(中国大陆) / 2018-02-16(美国)
片长: 134分钟 / 135分钟(中国大陆)
IMDb链接: tt1825683

黑豹的剧情简介 · · · · · ·
  在漫威影业的影片《黑豹》中,特查拉在其父亲——前瓦坎达国王去世之后,回到了这个科技先进但与世隔绝的非洲国家,继任成为新一任“黑豹”及国王。当旧敌重现时,作为“黑豹”及国王的特查拉身陷两难境地,眼看着瓦坎达及全世界陷于危难之中。面对背叛与危险,这位年轻的国王必须联合同盟, 释放“黑豹”全部力量,奋力捍卫他的人民和国土。

截图




Video
ID                                       : 1
Format                                   : AVC
Format/Info                              : Advanced Video Codec
Format profile                           : High@L4.1
Format settings                          : CABAC / 4 Ref Frames
Format settings, CABAC                   : Yes
Format settings, ReFrames                : 4 frames
Codec ID                                 : V_MPEG4/ISO/AVC
Duration                                 : 2 h 14 min
Bit rate mode                            : Variable
Bit rate                                 : 23.6 Mb/s
Maximum bit rate                         : 35.0 Mb/s
Width                                    : 1 920 pixels
Height                                   : 1 080 pixels
Display aspect ratio                     : 16:9
Frame rate mode                          : Constant
Frame rate                               : 23.976 (24000/1001) FPS
Color space                              : YUV
Chroma subsampling                       : 4:2:0
Bit depth                                : 8 bits
Scan type                                : Progressive
Bits/(Pixel*Frame)                       : 0.475
Stream size                              : 22.2 GiB (74%)
Title                                    : Black.Panther.2018.1080p.BluRay.REMUX.AVC.DTS-HD.MA.7.1-FGT
Language                                 : English
Default                                  : No
Forced                                   : No

Audio #1
ID                                       : 2
Format                                   : DTS
Format/Info                              : Digital Theater Systems
Format profile                           : MA / Core
Codec ID                                 : A_DTS
Duration                                 : 2 h 14 min
Bit rate mode                            : Variable / Constant
Bit rate                                 : 4 981 kb/s / 1 509 kb/s
Channel(s)                               : 8 channels / 6 channels
Channel positions                        : Front: L C R, Side: L R, Back: L R, LFE / Front: L C R, Side: L R, LFE
Sampling rate                            : 48.0 kHz
Frame rate                               : 93.750 FPS (512 SPF)
Bit depth                                : 24 bits
Compression mode                         : Lossless / Lossy
Stream size                              : 4.68 GiB (16%)
Title                                    : Black.Panther.2018.1080p.BluRay.REMUX.AVC.DTS-HD.MA.7.1-FGT
Language                                 : English
Default                                  : Yes
Forced                                   : No

Audio #2
ID                                       : 3
Format                                   : DTS
Format/Info                              : Digital Theater Systems
Codec ID                                 : A_DTS
Duration                                 : 2 h 14 min
Bit rate mode                            : Constant
Bit rate                                 : 1 509 kb/s
Channel(s)                               : 6 channels
Channel positions                        : Front: L C R, Side: L R, LFE
Sampling rate                            : 48.0 kHz
Frame rate                               : 93.750 FPS (512 SPF)
Bit depth                                : 24 bits
Compression mode                         : Lossy
Stream size                              : 1.42 GiB (5%)
Title                                    : Black.Panther.2018.1080p.BluRay.REMUX.AVC.DTS-HD.MA.7.1-FGT
Language                                 : English
Default                                  : No
Forced                                   : No

Audio #3
ID                                       : 4
Format                                   : AC-3
Format/Info                              : Audio Coding 3
Codec ID                                 : A_AC3
Duration                                 : 2 h 14 min
Bit rate mode                            : Constant
Bit rate                                 : 320 kb/s
Channel(s)                               : 2 channels
Channel positions                        : Front: L R
Sampling rate                            : 48.0 kHz
Frame rate                               : 31.250 FPS (1536 SPF)
Bit depth                                : 16 bits
Compression mode                         : Lossy
Stream size                              : 308 MiB (1%)
Title                                    : Black.Panther.2018.1080p.BluRay.REMUX.AVC.DTS-HD.MA.7.1-FGT
Language                                 : English
Service kind                             : Complete Main
Default                                  : No
Forced                                   : No

Audio #4
ID                                       : 5
Format                                   : AC-3
Format/Info                              : Audio Coding 3
Codec ID                                 : A_AC3
Duration                                 : 2 h 14 min
Bit rate mode                            : Constant
Bit rate                                 : 640 kb/s
Channel(s)                               : 6 channels
Channel positions                        : Front: L C R, Side: L R, LFE
Sampling rate                            : 48.0 kHz
Frame rate                               : 31.250 FPS (1536 SPF)
Bit depth                                : 16 bits
Compression mode                         : Lossy
Stream size                              : 616 MiB (2%)
Title                                    : Black.Panther.2018.1080p.BluRay.REMUX.AVC.DTS-HD.MA.7.1-FGT
Language                                 : French
Service kind                             : Complete Main
Default                                  : No
Forced                                   : No

Audio #5
ID                                       : 6
Format                                   : AC-3
Format/Info                              : Audio Coding 3
Codec ID                                 : A_AC3
Duration                                 : 2 h 14 min
Bit rate mode                            : Constant
Bit rate                                 : 640 kb/s
Channel(s)                               : 6 channels
Channel positions                        : Front: L C R, Side: L R, LFE
Sampling rate                            : 48.0 kHz
Frame rate                               : 31.250 FPS (1536 SPF)
Bit depth                                : 16 bits
Compression mode                         : Lossy
Stream size                              : 616 MiB (2%)
Title                                    : Black.Panther.2018.1080p.BluRay.REMUX.AVC.DTS-HD.MA.7.1-FGT
Language                                 : Spanish
Service kind                             : Complete Main
Default                                  : No
Forced                                   : No

Audio #6
ID                                       : 7
Format                                   : AC-3
Format/Info                              : Audio Coding 3
Codec ID                                 : A_AC3
Duration                                 : 2 h 14 min
Bit rate mode                            : Constant
Bit rate                                 : 192 kb/s
Channel(s)                               : 2 channels
Channel positions                        : Front: L R
Sampling rate                            : 48.0 kHz
Frame rate                               : 31.250 FPS (1536 SPF)
Bit depth                                : 16 bits
Compression mode                         : Lossy
Stream size                              : 185 MiB (1%)
Title                                    : Black.Panther.2018.1080p.BluRay.REMUX.AVC.DTS-HD.MA.7.1-FGT
Language                                 : English
Service kind                             : Complete Main
Default                                  : No
Forced                                   : No

Text #1
ID                                       : 8
Format                                   : PGS
Muxing mode                              : zlib
Codec ID                                 : S_HDMV/PGS
Codec ID/Info                            : Picture based subtitle format used on BDs/HD-DVDs
Duration                                 : 2 h 14 min
Bit rate                                 : 32.6 kb/s
Count of elements                        : 3670
Stream size                              : 31.2 MiB (0%)
Title                                    : English-PGS
Language                                 : English
Default                                  : Yes
Forced                                   : No

Text #2
ID                                       : 9
Format                                   : PGS
Muxing mode                              : zlib
Codec ID                                 : S_HDMV/PGS
Codec ID/Info                            : Picture based subtitle format used on BDs/HD-DVDs
Duration                                 : 2 h 14 min
Bit rate                                 : 27.4 kb/s
Count of elements                        : 2946
Stream size                              : 26.4 MiB (0%)
Title                                    : French-PGS
Language                                 : French
Default                                  : No
Forced                                   : No

Text #3
ID                                       : 10
Format                                   : PGS
Muxing mode                              : zlib
Codec ID                                 : S_HDMV/PGS
Codec ID/Info                            : Picture based subtitle format used on BDs/HD-DVDs
Duration                                 : 2 h 14 min
Bit rate                                 : 26.9 kb/s
Count of elements                        : 2906
Stream size                              : 25.9 MiB (0%)
Title                                    : Spanish-PGS
Language                                 : Spanish
Default                                  : No
Forced                                   : No

Text #4
ID                                       : 11
Format                                   : PGS
Muxing mode                              : zlib
Codec ID                                 : S_HDMV/PGS
Codec ID/Info                            : Picture based subtitle format used on BDs/HD-DVDs
Duration                                 : 2 h 14 min
Bit rate                                 : 78.7 kb/s
Count of elements                        : 5252
Stream size                              : 75.5 MiB (0%)
Title                                    : English-COMMENTARY-PGS
Language                                 : English
Default                                  : No
Forced                                   : No

Text #5
ID                                       : 12
Format                                   : PGS
Muxing mode                              : zlib
Codec ID                                 : S_HDMV/PGS
Codec ID/Info                            : Picture based subtitle format used on BDs/HD-DVDs
Duration                                 : 2 h 14 min
Bit rate                                 : 65.5 kb/s
Count of elements                        : 5061
Stream size                              : 62.9 MiB (0%)
Title                                    : French-COMMENTARY-PGS
Language                                 : French
Default                                  : No
Forced                                   : No

Text #6
ID                                       : 13
Format                                   : PGS
Muxing mode                              : zlib
Codec ID                                 : S_HDMV/PGS
Codec ID/Info                            : Picture based subtitle format used on BDs/HD-DVDs
Duration                                 : 2 h 14 min
Bit rate                                 : 66.0 kb/s
Count of elements                        : 5020
Stream size                              : 63.4 MiB (0%)
Title                                    : Spanish-COMMENTARY-PGS
Language                                 : Spanish
Default                                  : No
Forced                                   : No

Text #7
ID                                       : 14
Format                                   : PGS
Muxing mode                              : zlib
Codec ID                                 : S_HDMV/PGS
Codec ID/Info                            : Picture based subtitle format used on BDs/HD-DVDs
Duration                                 : 2 h 10 min
Bit rate                                 : 838 b/s
Count of elements                        : 136
Stream size                              : 801 KiB (0%)
Title                                    : English-FORCED-PGS
Language                                 : English
Default                                  : No
Forced                                   : No

Text #8
ID                                       : 15
Format                                   : PGS
Muxing mode                              : zlib
Codec ID                                 : S_HDMV/PGS
Codec ID/Info                            : Picture based subtitle format used on BDs/HD-DVDs
Duration                                 : 2 h 12 min
Bit rate                                 : 1 235 b/s
Count of elements                        : 194
Stream size                              : 1.17 MiB (0%)
Title                                    : French-FORCED-PGS
Language                                 : French
Default                                  : No
Forced                                   : No

Text #9
ID                                       : 16
Format                                   : PGS
Muxing mode                              : zlib
Codec ID                                 : S_HDMV/PGS
Codec ID/Info                            : Picture based subtitle format used on BDs/HD-DVDs
Duration                                 : 2 h 10 min
Bit rate                                 : 1 009 b/s
Count of elements                        : 152
Stream size                              : 968 KiB (0%)
Title                                    : Spanish-FORCED-PGS
Language                                 : Spanish
Default                                  : No
Forced                                   : No

Menu
00:00:00.000                             : en:Chapter 01
00:06:56.290                             : en:Chapter 02
00:12:02.805                             : en:Chapter 03
00:19:12.359                             : en:Chapter 04
00:28:32.961                             : en:Chapter 05
00:33:11.698                             : en:Chapter 06
00:40:57.496                             : en:Chapter 07
00:48:34.036                             : en:Chapter 08
00:53:46.097                             : en:Chapter 09
01:01:57.338                             : en:Chapter 10
01:08:33.025                             : en:Chapter 11
01:16:46.768                             : en:Chapter 12
01:22:24.022                             : en:Chapter 13
01:31:21.434                             : en:Chapter 14
01:41:15.360                             : en:Chapter 15
01:50:56.483                             : en:Chapter 16
01:59:16.941                             : en:Chapter 17
02:02:43.898                             : en:Chapter 18

Black.Panther.2018.1080p.BluRay.REMUX.AVC.DTS-HD.MA.7.1.torrent

75.7 KB, 下载次数: 106

电影交流QQ群: 498117193

0

主题

21

帖子

30

影币

观众

Rank: 1

积分
30
注册时间
2017-12-27
最后登录
2018-5-26
发表于 2018-5-7 15:10:09 | 显示全部楼层
我都想听下多谢楼主无私分享
电影交流QQ群: 498117193

0

主题

54

帖子

63

影币

影迷

Rank: 2Rank: 2

积分
63
注册时间
2017-10-24
最后登录
2018-5-24
发表于 2018-5-7 16:11:53 | 显示全部楼层
谢谢楼主分享
电影交流QQ群: 498117193

0

主题

54

帖子

63

影币

影迷

Rank: 2Rank: 2

积分
63
注册时间
2017-10-24
最后登录
2018-5-24
发表于 2018-5-9 09:34:22 | 显示全部楼层
争议不少,看看再说。
电影交流QQ群: 498117193
您需要登录后才可以回帖 登录 | 注册

本版积分规则

小黑屋|手机版|BT探索

GMT+8, 2018-5-27 09:29

Powered by Discuz! X3.2

© 2001-2013 Comsenz Inc.

快速回复 返回顶部 返回列表