BT探索

 找回密码
 注册
搜索
查看: 334|回复: 0

[欧美] 头号玩家.Ready.Player.One.2018.720p.KORSUB.HDRip.x264.AAC2.0-STUTTERSHIT.4.18 GB

[复制链接]

3万

主题

4万

帖子

11万

影币

管理员

Rank: 8Rank: 8Rank: 8Rank: 8Rank: 8Rank: 8Rank: 8Rank: 8

积分
116953
注册时间
2010-9-1
最后登录
2018-5-28

Medal No.1Medal No.2Medal No.3Medal No.4Medal No.5Medal No.6Medal No.7Medal No.8Medal No.9Medal No.10

发表于 2018-5-9 16:01:32 | 显示全部楼层 |阅读模式
海报


导演: 史蒂文·斯皮尔伯格
编剧: 扎克·佩恩 / 恩斯特·克莱恩
主演: 泰伊·谢里丹 / 奥利维亚·库克 / 本·门德尔森 / 马克·里朗斯 / 丽娜·维特 / 森崎温 / 赵家正 / 西蒙·佩吉 / T·J·米勒 / 汉娜·乔恩-卡门 / 拉尔夫·尹爱森 / 苏珊·林奇 / 克莱尔·希金斯 / 劳伦斯·斯佩尔曼 / 佩蒂塔·维克斯 / 艾萨克·安德鲁斯
类型: 动作 / 科幻 / 冒险
官方网站: readyplayeronemovie.com
制片国家/地区: 美国
语言: 英语 / 日语 / 汉语普通话
上映日期: 2018-03-30(中国大陆) / 2018-03-11(西南偏南电影节) / 2018-03-29(美国)
片长: 140分钟
又名: 玩家一号 / 挑战者1号(港) / 一级玩家(台) / 一号玩家
IMDb链接: tt1677720

头号玩家的剧情简介 · · · · · ·
  故事发生在2045年,虚拟现实技术已经渗透到了人类生活的每一个角落。詹姆斯哈利迪(马克·里朗斯 Mark Rylance 饰)一手建造了名为“绿洲”的虚拟现实游戏世界,临终前,他宣布自己在游戏中设置了一个彩蛋,找到这枚彩蛋的人即可成为绿洲的继承人。要找到这枚彩蛋,必须先获得三把钥匙,而寻找钥匙的线索就隐藏在詹姆斯的过往之中。
  韦德(泰尔·谢里丹 Tye Sheridan 饰)、艾奇(丽娜·维特 Lena Waithe 饰)、大东(森崎温 饰)和修(赵家正 饰)是游戏中的好友,和之后遇见的阿尔忒弥斯(奥利维亚·库克 Olivia Cooke 饰)一起,五人踏上了寻找彩蛋的征程。他们所要对抗的,是名为诺兰索伦托(本·门德尔森 Ben Mendelsohn 饰)的大资本家。

截图





Video
ID                                       : 1
Format                                   : AVC
Format/Info                              : Advanced Video Codec
Format profile                           : High@L4.1
Format settings                          : CABAC / 4 Ref Frames
Format settings, CABAC                   : Yes
Format settings, ReFrames                : 4 frames
Codec ID                                 : avc1
Codec ID/Info                            : Advanced Video Coding
Duration                                 : 2 h 19 min
Bit rate                                 : 4 000 kb/s
Width                                    : 1 280 pixels
Height                                   : 534 pixels
Display aspect ratio                     : 2.40:1
Original display aspect ratio            : 2.40:1
Frame rate mode                          : Constant
Frame rate                               : 30.000 FPS
Color space                              : YUV
Chroma subsampling                       : 4:2:0
Bit depth                                : 8 bits
Scan type                                : Progressive
Bits/(Pixel*Frame)                       : 0.195
Stream size                              : 3.92 GiB (94%)
Title                                    : Ready.Player.One.2018.720p.KORSUB.HDRip.x264.AAC2.0-STUTTERSHIT
Writing library                          : x264 core 148 r2795M aaa9aa8
Encoding settings                        : cabac=1 / ref=4 / deblock=1:0:0 / analyse=0x3:0x113 / me=umh / subme=9 / psy=1 / psy_rd=1.00:0.00 / mixed_ref=1 / me_range=16 / chroma_me=1 / trellis=2 / 8x8dct=1 / cqm=0 / deadzone=21,11 / fast_pskip=1 / chroma_qp_offset=-2 / threads=40 / lookahead_threads=3 / sliced_threads=0 / nr=0 / decimate=1 / interlaced=0 / bluray_compat=0 / constrained_intra=0 / bframes=3 / b_pyramid=2 / b_adapt=2 / b_bias=0 / direct=3 / weightb=1 / open_gop=0 / weightp=2 / keyint=250 / keyint_min=25 / scenecut=40 / intra_refresh=0 / rc_lookahead=50 / rc=abr / mbtree=1 / bitrate=4000 / ratetol=1.0 / qcomp=0.60 / qpmin=0 / qpmax=69 / qpstep=4 / ip_ratio=1.40 / aq=1:1.00
Language                                 : English

Audio
ID                                       : 2
Format                                   : AAC
Format/Info                              : Advanced Audio Codec
Format profile                           : LC
Codec ID                                 : mp4a-40-2
Duration                                 : 2 h 19 min
Bit rate mode                            : Constant
Bit rate                                 : 256 kb/s
Channel(s)                               : 2 channels
Channel positions                        : Front: L R
Sampling rate                            : 44.1 kHz
Frame rate                               : 43.066 FPS (1024 SPF)
Compression mode                         : Lossy
Stream size                              : 256 MiB (6%)
Title                                    : Ready.Player.One.2018.720p.KORSUB.HDRip.x264.AAC2.0-STUTTERSHIT
Language                                 : English
Default                                  : Yes
Alternate group                          : 1


Ready.Player.One.2018.720p.KORSUB.HDRip.x264.AAC2.0-btufo.torrent

84.06 KB, 下载次数: 575

电影交流QQ群: 498117193
您需要登录后才可以回帖 登录 | 注册

本版积分规则

小黑屋|手机版|BT探索

GMT+8, 2018-5-28 16:00

Powered by Discuz! X3.2

© 2001-2013 Comsenz Inc.

快速回复 返回顶部 返回列表