BT探索

 找回密码
 注册
查看: 186|回复: 0

[Remux] 至暗时刻.2017.2160p.BluRay.REMUX.HEVC.DTS-HD.MA.TrueHD.7.1.Atmos.55.98 GB

[复制链接]

3万

主题

4万

帖子

13万

影币

管理员

Rank: 8Rank: 8Rank: 8Rank: 8Rank: 8Rank: 8Rank: 8Rank: 8

积分
130621
注册时间
2010-9-1
最后登录
2018-8-15

Medal No.1Medal No.2Medal No.3Medal No.4Medal No.5Medal No.6Medal No.7Medal No.8Medal No.9Medal No.10

发表于 2018-5-9 16:09:51 | 显示全部楼层 |阅读模式
海报


导演: 乔·赖特
编剧: 安东尼·麦卡滕
主演: 加里·奥德曼 / 克里斯汀·斯科特·托马斯 / 莉莉·詹姆斯 / 本·门德尔森 / 斯蒂芬·迪兰 / 萨缪尔·韦斯特 / 汉娜·斯蒂尔 / 罗纳德·皮卡普 / 乔丹·沃勒 / 理查德·拉姆斯登 / 安娜·伯内特 / 尼古拉斯·琼斯 / 查理·帕尔默·罗斯韦尔 / 布赖恩·佩蒂福 / 菲利普·马丁·布朗 / 安杰莉克·琼 / 希尔顿·麦克雷 / 詹姆斯·伊莱斯 / 杰瑞米·查亚德 / 马汀·麦格 / 迈克尔·海登 / 迈克尔·博特
类型: 剧情 / 传记 / 历史
制片国家/地区: 英国 / 美国
语言: 英语
上映日期: 2017-12-01(中国大陆) / 2017-09-01(特柳赖德电影节) / 2018-01-12(英国)
片长: 125分钟
又名: 最黑暗的时刻(台) / 黑暗对峙(港) / 至暗之时 / 黑暗时刻
IMDb链接: tt4555426

至暗时刻的剧情简介 · · · · · ·
  影片讲述英国首相丘吉尔在作为首相期间面临的最重要的审判:是向纳粹妥协做俘虏,还是团结人民群起反抗?丘吉尔将集结整个国家为自由奋战,试图改变世界历史进程,度过黎明前的黑暗。

至暗时刻的获奖情况
第90届奥斯卡金像奖 最佳影片(提名) 埃里克·菲尔纳 / 道格拉斯·尤巴斯基 / 安东尼·麦卡滕 / 丽莎·布鲁斯 / 蒂姆·贝文
第75届金球奖 电影类 剧情片最佳男主角 加里·奥德曼
第71届英国电影学院奖 电影奖 最佳影片(提名)

截图




Video
ID                                       : 1
Format                                   : HEVC
Format/Info                              : High Efficiency Video Coding
Format profile                           : Main 10@L5.1@High
Codec ID                                 : V_MPEGH/ISO/HEVC
Duration                                 : 2 h 5 min
Bit rate                                 : 49.6 Mb/s
Width                                    : 3 840 pixels
Height                                   : 2 160 pixels
Display aspect ratio                     : 16:9
Frame rate mode                          : Constant
Frame rate                               : 23.976 (24000/1001) FPS
Color space                              : YUV
Chroma subsampling                       : 4:2:0 (Type 2)
Bit depth                                : 10 bits
Bits/(Pixel*Frame)                       : 0.249
Stream size                              : 43.4 GiB (77%)
Title                                    : Darkest.Hour.2017.2160p.BluRay.REMUX.HEVC.DTS-HD.MA.TrueHD.7.1.Atmos-FGT
Writing library                          : ATEME Titan File 3.8.14 (4.8.14.0)      
Default                                  : Yes
Forced                                   : No
Color range                              : Limited
Color primaries                          : BT.2020
Transfer characteristics                 : PQ
Matrix coefficients                      : BT.2020 non-constant
Mastering display color primaries        : Display P3
Mastering display luminance              : min: 0.0050 cd/m2, max: 1000 cd/m2
Maximum Content Light Level              : 662 cd/m2
Maximum Frame-Average Light Level        : 151 cd/m2

Audio #1
ID                                       : 2
Format                                   : TrueHD
Format profile                           : TrueHD+Atmos / TrueHD
Codec ID                                 : A_TRUEHD
Duration                                 : 2 h 5 min
Bit rate mode                            : Variable
Bit rate                                 : 4 225 kb/s
Maximum bit rate                         : 6 603 kb/s
Channel(s)                               : Object Based / 8 channels
Channel positions                        : Object Based / Front: L C R, Side: L R, Back: L R, LFE
Sampling rate                            :  / 48.0 kHz
Frame rate                               : 1 200.000 FPS (40 SPF)
Compression mode                         : Lossless
Delay relative to video                  : 32 ms
Stream size                              : 3.70 GiB (7%)
Title                                    : Darkest.Hour.2017.2160p.BluRay.REMUX.HEVC.DTS-HD.MA.TrueHD.7.1.Atmos-FGT
Language                                 : English
Default                                  : Yes
Forced                                   : No

Audio #2
ID                                       : 3
Format                                   : DTS
Format/Info                              : Digital Theater Systems
Format profile                           : MA / Core
Codec ID                                 : A_DTS
Duration                                 : 2 h 5 min
Bit rate mode                            : Variable / Constant
Bit rate                                 : 3 568 kb/s / 1 509 kb/s
Channel(s)                               : 8 channels / 6 channels
Channel positions                        : Front: L C R, Side: L R, Back: L R, LFE / Front: L C R, Side: L R, LFE
Sampling rate                            : 48.0 kHz
Frame rate                               : 93.750 FPS (512 SPF)
Bit depth                                : 24 bits
Compression mode                         : Lossless / Lossy
Stream size                              : 3.12 GiB (6%)
Title                                    : Darkest.Hour.2017.2160p.BluRay.REMUX.HEVC.DTS-HD.MA.TrueHD.7.1.Atmos-FGT
Language                                 : English
Default                                  : No
Forced                                   : No

Audio #3
ID                                       : 4
Format                                   : AC-3
Format/Info                              : Audio Coding 3
Codec ID                                 : A_AC3
Duration                                 : 2 h 5 min
Bit rate mode                            : Constant
Bit rate                                 : 640 kb/s
Channel(s)                               : 6 channels
Channel positions                        : Front: L C R, Side: L R, LFE
Sampling rate                            : 48.0 kHz
Frame rate                               : 31.250 FPS (1536 SPF)
Bit depth                                : 16 bits
Compression mode                         : Lossy
Delay relative to video                  : 31 ms
Stream size                              : 573 MiB (1%)
Title                                    : Darkest.Hour.2017.2160p.BluRay.REMUX.HEVC.DTS-HD.MA.TrueHD.7.1.Atmos-FGT
Language                                 : English
Service kind                             : Complete Main
Default                                  : No
Forced                                   : No

Audio #4
ID                                       : 5
Format                                   : TrueHD
Format profile                           : TrueHD+Atmos / TrueHD
Codec ID                                 : A_TRUEHD
Duration                                 : 2 h 5 min
Bit rate mode                            : Variable
Bit rate                                 : 4 157 kb/s
Maximum bit rate                         : 6 720 kb/s
Channel(s)                               : Object Based / 8 channels
Channel positions                        : Object Based / Front: L C R, Side: L R, Back: L R, LFE
Sampling rate                            :  / 48.0 kHz
Frame rate                               : 1 200.000 FPS (40 SPF)
Compression mode                         : Lossless
Delay relative to video                  : 32 ms
Stream size                              : 3.64 GiB (6%)
Title                                    : Darkest.Hour.2017.2160p.BluRay.REMUX.HEVC.DTS-HD.MA.TrueHD.7.1.Atmos-FGT
Language                                 : German
Default                                  : No
Forced                                   : No

Audio #5
ID                                       : 6
Format                                   : AC-3
Format/Info                              : Audio Coding 3
Codec ID                                 : A_AC3
Duration                                 : 2 h 5 min
Bit rate mode                            : Constant
Bit rate                                 : 640 kb/s
Channel(s)                               : 6 channels
Channel positions                        : Front: L C R, Side: L R, LFE
Sampling rate                            : 48.0 kHz
Frame rate                               : 31.250 FPS (1536 SPF)
Bit depth                                : 16 bits
Compression mode                         : Lossy
Delay relative to video                  : 31 ms
Stream size                              : 573 MiB (1%)
Title                                    : Darkest.Hour.2017.2160p.BluRay.REMUX.HEVC.DTS-HD.MA.TrueHD.7.1.Atmos-FGT
Language                                 : German
Service kind                             : Complete Main
Default                                  : No
Forced                                   : No

Audio #6
ID                                       : 7
Format                                   : E-AC-3
Format/Info                              : Enhanced Audio Coding 3
Codec ID                                 : A_EAC3
Duration                                 : 2 h 5 min
Bit rate mode                            : Constant
Bit rate                                 : 500 b/s
Channel(s)                               : 6 channels
Channel positions                        : Front: L C R, Side: L R, LFE
Sampling rate                            : 48.0 kHz
Frame rate                               : 187.500 FPS (256 SPF)
Compression mode                         : Lossy
Stream size                              : 688 MiB (1%)
Title                                    : Darkest.Hour.2017.2160p.BluRay.REMUX.HEVC.DTS-HD.MA.TrueHD.7.1.Atmos-FGT
Language                                 : Italian
Service kind                             : Complete Main
Default                                  : No
Forced                                   : No

Audio #7
ID                                       : 8
Format                                   : AC-3
Format/Info                              : Audio Coding 3
Codec ID                                 : A_AC3
Duration                                 : 2 h 5 min
Bit rate mode                            : Constant
Bit rate                                 : 192 kb/s
Channel(s)                               : 2 channels
Channel positions                        : Front: L R
Sampling rate                            : 48.0 kHz
Frame rate                               : 31.250 FPS (1536 SPF)
Bit depth                                : 16 bits
Compression mode                         : Lossy
Stream size                              : 172 MiB (0%)
Title                                    : Darkest.Hour.2017.2160p.BluRay.REMUX.HEVC.DTS-HD.MA.TrueHD.7.1.Atmos-FGT
Language                                 : English
Service kind                             : Complete Main
Default                                  : No
Forced                                   : No

Text #1
ID                                       : 9
Format                                   : PGS
Muxing mode                              : zlib
Codec ID                                 : S_HDMV/PGS
Codec ID/Info                            : Picture based subtitle format used on BDs/HD-DVDs
Duration                                 : 1 h 57 min
Bit rate                                 : 40.0 kb/s
Count of elements                        : 3470
Stream size                              : 33.6 MiB (0%)
Title                                    : English-PGS
Language                                 : English
Default                                  : Yes
Forced                                   : No

Text #2
ID                                       : 10
Format                                   : PGS
Muxing mode                              : zlib
Codec ID                                 : S_HDMV/PGS
Codec ID/Info                            : Picture based subtitle format used on BDs/HD-DVDs
Duration                                 : 2 h 3 min
Bit rate                                 : 38.5 kb/s
Count of elements                        : 3066
Stream size                              : 34.1 MiB (0%)
Title                                    : German-PGS
Language                                 : German
Default                                  : No
Forced                                   : No

Text #3
ID                                       : 11
Format                                   : PGS
Muxing mode                              : zlib
Codec ID                                 : S_HDMV/PGS
Codec ID/Info                            : Picture based subtitle format used on BDs/HD-DVDs
Duration                                 : 2 h 3 min
Bit rate                                 : 36.9 kb/s
Count of elements                        : 3178
Stream size                              : 32.6 MiB (0%)
Title                                    : Italian-PGS
Language                                 : Italian
Default                                  : No
Forced                                   : No

Text #4
ID                                       : 12
Format                                   : PGS
Muxing mode                              : zlib
Codec ID                                 : S_HDMV/PGS
Codec ID/Info                            : Picture based subtitle format used on BDs/HD-DVDs
Duration                                 : 1 h 59 min
Bit rate                                 : 53.1 kb/s
Count of elements                        : 4128
Stream size                              : 45.3 MiB (0%)
Title                                    : English-COMMENTARY-PGS
Language                                 : English
Default                                  : No
Forced                                   : No

Text #5
ID                                       : 13
Format                                   : PGS
Muxing mode                              : zlib
Codec ID                                 : S_HDMV/PGS
Codec ID/Info                            : Picture based subtitle format used on BDs/HD-DVDs
Duration                                 : 2 h 4 min
Bit rate                                 : 53.7 kb/s
Count of elements                        : 4168
Stream size                              : 47.9 MiB (0%)
Title                                    : German-COMMENTARY-PGS
Language                                 : German
Default                                  : No
Forced                                   : No

Text #6
ID                                       : 14
Format                                   : PGS
Muxing mode                              : zlib
Codec ID                                 : S_HDMV/PGS
Codec ID/Info                            : Picture based subtitle format used on BDs/HD-DVDs
Duration                                 : 2 h 4 min
Bit rate                                 : 50.3 kb/s
Count of elements                        : 4168
Stream size                              : 44.8 MiB (0%)
Title                                    : Italian-COMMENTARY-PGS
Language                                 : Italian
Default                                  : No
Forced                                   : No

Text #7
ID                                       : 15
Format                                   : PGS
Muxing mode                              : zlib
Codec ID                                 : S_HDMV/PGS
Codec ID/Info                            : Picture based subtitle format used on BDs/HD-DVDs
Duration                                 : 4 s 880 ms
Bit rate                                 : 30.5 kb/s
Count of elements                        : 6
Stream size                              : 18.2 KiB (0%)
Title                                    : English-FORCED-PGS
Language                                 : English
Default                                  : No
Forced                                   : No

Text #8
ID                                       : 16
Format                                   : PGS
Muxing mode                              : zlib
Codec ID                                 : S_HDMV/PGS
Codec ID/Info                            : Picture based subtitle format used on BDs/HD-DVDs
Duration                                 : 2 h 3 min
Bit rate                                 : 967 b/s
Count of elements                        : 88
Stream size                              : 876 KiB (0%)
Title                                    : German-FORCED-PGS
Language                                 : German
Default                                  : No
Forced                                   : No

Text #9
ID                                       : 17
Format                                   : PGS
Muxing mode                              : zlib
Codec ID                                 : S_HDMV/PGS
Codec ID/Info                            : Picture based subtitle format used on BDs/HD-DVDs
Duration                                 : 2 h 3 min
Bit rate                                 : 1 124 b/s
Count of elements                        : 96
Stream size                              : 1 019 KiB (0%)
Title                                    : Italian-FORCED-PGS
Language                                 : Italian
Default                                  : No
Forced                                   : No

Menu
00:00:00.000                             : en:Chapter 1
00:05:44.052                             : en:Chapter 2
00:10:41.974                             : en:Chapter 3
00:14:23.612                             : en:Chapter 4
00:22:57.084                             : en:Chapter 5
00:29:47.202                             : en:Chapter 6
00:37:33.542                             : en:Chapter 7
00:41:28.611                             : en:Chapter 8
00:48:50.928                             : en:Chapter 9
00:56:40.522                             : en:Chapter 10
01:03:02.487                             : en:Chapter 11
01:11:21.026                             : en:Chapter 12
01:19:05.490                             : en:Chapter 13
01:24:29.814                             : en:Chapter 14
01:30:49.652                             : en:Chapter 15
01:36:22.777                             : en:Chapter 16
01:39:57.992                             : en:Chapter 17
01:45:44.129                             : en:Chapter 18
01:53:19.250                             : en:Chapter 19
02:00:08.618                             : en:Chapter 20

Darkest.Hour.2017.2160p.BluRay.REMUX.HEVC.DTS-HD.MA.TrueHD.7.1.Atmos.torrent

140.53 KB, 下载次数: 14

电影交流QQ群: 498117193
您需要登录后才可以回帖 登录 | 注册

本版积分规则

BT探索

GMT+8, 2018-8-16 03:22

Powered by Discuz! X3.2

© 2001-2013 Comsenz Inc.

快速回复 返回顶部 返回列表