BT探索

 找回密码
 注册
搜索
查看: 49|回复: 0

[Remux] 魅影缝匠.Phantom.Thread.2017.2160p.BluRay.REMUX.HEVC.DTS-X.7.1-FGT.78.15 GB

[复制链接]

3万

主题

4万

帖子

11万

影币

管理员

Rank: 8Rank: 8Rank: 8Rank: 8Rank: 8Rank: 8Rank: 8Rank: 8

积分
116666
注册时间
2010-9-1
最后登录
2018-5-26

Medal No.1Medal No.2Medal No.3Medal No.4Medal No.5Medal No.6Medal No.7Medal No.8Medal No.9Medal No.10

发表于 2018-5-9 16:11:21 | 显示全部楼层 |阅读模式
海报


导演: 保罗·托马斯·安德森
编剧: 保罗·托马斯·安德森
主演: 丹尼尔·戴-刘易斯 / 薇姬·克里普斯 / 莱丝利·曼维尔 / 卡米拉·拉瑟福德 / 吉娜·麦基 / 布莱恩·格里森 / 哈里特·桑塞姆·哈里斯 / 理查德·格拉翰 / 西拉斯·卡森 / 朱莉娅·戴维斯 / 简·佩里
类型: 剧情 / 爱情
官方网站: www.focusfeatures.com/phantom-thread
制片国家/地区: 美国 / 英国
语言: 英语 / 法语
上映日期: 2017-12-25(美国点映) / 2018-01-19(美国)
片长: 130分钟
又名: 霓裳魅影(港/台) / 幽冥端绪 / 幽灵线条 / 一缕浮生 / 衣缕浮生 / 丝缕幻象
IMDb链接: tt5776858

魅影缝匠的剧情简介 · · · · · ·
  故事发生在二十世纪五十年代的伦敦,雷诺兹(丹尼尔·戴-刘易斯 Daniel Day Lewis 饰)和妹妹西丽奥(莱丝利·曼维尔 Lesley Manville 饰)一起经营着名为“伍德科克之家”的制衣所,在伦敦当时的上流社会之中,能够穿上雷诺兹亲手缝制的礼服是每一个王公显贵和明星名流的愿望。
  一次偶然中,雷诺兹在餐馆里遇见了名为阿尔玛(薇姬·克里普斯 Vicky Krieps 饰)的女服务生,两人一见钟情。雷诺兹将阿尔玛领入了五光十色的花花世界,但阿尔玛眼中却一直凝望着雷诺兹的身影。在生活中,雷诺兹是一个特别难缠和挑剔的怪人,朝夕相处之下,他和阿尔玛之间屡屡产生矛盾。眼看着雷诺兹的态度越来越冷淡,阿尔玛知道,自己必须采取行动,来捍卫她的爱情。

魅影缝匠的获奖情况
第90届奥斯卡金像奖 最佳影片(提名) 梅根·埃里森 / 乔安妮·塞拉尔 / 保罗·托马斯·安德森 / 丹尼尔·卢皮
第75届金球奖 电影类 剧情片最佳男主角(提名) 丹尼尔·戴-刘易斯
第71届英国电影学院奖 电影奖 最佳男主角(提名) 丹尼尔·戴-刘易斯

截图




Video
ID                                       : 1
Format                                   : HEVC
Format/Info                              : High Efficiency Video Coding
Format profile                           : Main 10@L5.1@High
Codec ID                                 : V_MPEGH/ISO/HEVC
Duration                                 : 2 h 10 min
Bit rate                                 : 77.9 Mb/s
Width                                    : 3 840 pixels
Height                                   : 2 160 pixels
Display aspect ratio                     : 16:9
Frame rate mode                          : Constant
Frame rate                               : 23.976 (24000/1001) FPS
Color space                              : YUV
Chroma subsampling                       : 4:2:0 (Type 2)
Bit depth                                : 10 bits
Bits/(Pixel*Frame)                       : 0.392
Stream size                              : 71.1 GiB (91%)
Title                                    : Phantom.Thread.2017.2160p.BluRay.REMUX.HEVC.DTS-X.7.1-FGT
Default                                  : Yes
Forced                                   : No
Color range                              : Limited
Color primaries                          : BT.2020
Transfer characteristics                 : PQ
Matrix coefficients                      : BT.2020 non-constant
Mastering display color primaries        : Display P3
Mastering display luminance              : min: 0.0050 cd/m2, max: 1000 cd/m2
Maximum Content Light Level              : 637 cd/m2
Maximum Frame-Average Light Level        : 75 cd/m2

Audio #1
ID                                       : 2
Format                                   : DTS
Format/Info                              : Digital Theater Systems
Format profile                           : X / MA / Core
Codec ID                                 : A_DTS
Duration                                 : 2 h 10 min
Bit rate mode                            : Variable / Variable / Constant
Bit rate                                 : 6 214 kb/s / 6 214 kb/s / 1 509 kb/s
Channel(s)                               : Object Based / 8 channels / 6 channels
Channel positions                        : Object Based / Front: L C R, Side: L R, Back: L R, LFE / Front: L C R, Side: L R, LFE
Sampling rate                            :  / 48.0 kHz / 48.0 kHz
Frame rate                               : 93.750 FPS (512 SPF)
Bit depth                                :  / 24 bits / 24 bits
Compression mode                         :  / Lossless / Lossy
Stream size                              : 5.67 GiB (7%)
Title                                    : Phantom.Thread.2017.2160p.BluRay.REMUX.HEVC.DTS-X.7.1-FGT
Language                                 : English
Default                                  : Yes
Forced                                   : No

Audio #2
ID                                       : 3
Format                                   : DTS
Format/Info                              : Digital Theater Systems
Codec ID                                 : A_DTS
Duration                                 : 2 h 10 min
Bit rate mode                            : Constant
Bit rate                                 : 768 kb/s
Channel(s)                               : 6 channels
Channel positions                        : Front: L C R, Side: L R, LFE
Sampling rate                            : 48.0 kHz
Frame rate                               : 93.750 FPS (512 SPF)
Bit depth                                : 24 bits
Compression mode                         : Lossy
Stream size                              : 717 MiB (1%)
Title                                    : Phantom.Thread.2017.2160p.BluRay.REMUX.HEVC.DTS-X.7.1-FGT
Language                                 : French
Default                                  : No
Forced                                   : No

Audio #3
ID                                       : 4
Format                                   : DTS
Format/Info                              : Digital Theater Systems
Codec ID                                 : A_DTS
Duration                                 : 2 h 10 min
Bit rate mode                            : Constant
Bit rate                                 : 768 kb/s
Channel(s)                               : 6 channels
Channel positions                        : Front: L C R, Side: L R, LFE
Sampling rate                            : 48.0 kHz
Frame rate                               : 93.750 FPS (512 SPF)
Bit depth                                : 24 bits
Compression mode                         : Lossy
Stream size                              : 717 MiB (1%)
Title                                    : Phantom.Thread.2017.2160p.BluRay.REMUX.HEVC.DTS-X.7.1-FGT
Language                                 : Spanish
Default                                  : No
Forced                                   : No

Text #1
ID                                       : 5
Format                                   : PGS
Muxing mode                              : zlib
Codec ID                                 : S_HDMV/PGS
Codec ID/Info                            : Picture based subtitle format used on BDs/HD-DVDs
Duration                                 : 2 h 3 min
Bit rate                                 : 28.6 kb/s
Count of elements                        : 2562
Stream size                              : 25.4 MiB (0%)
Title                                    : English-PGS
Language                                 : English
Default                                  : Yes
Forced                                   : No

Text #2
ID                                       : 6
Format                                   : PGS
Muxing mode                              : zlib
Codec ID                                 : S_HDMV/PGS
Codec ID/Info                            : Picture based subtitle format used on BDs/HD-DVDs
Duration                                 : 2 h 10 min
Bit rate                                 : 20.1 kb/s
Count of elements                        : 2269
Stream size                              : 18.8 MiB (0%)
Title                                    : French-PGS
Language                                 : French
Default                                  : No
Forced                                   : No

Text #3
ID                                       : 7
Format                                   : PGS
Muxing mode                              : zlib
Codec ID                                 : S_HDMV/PGS
Codec ID/Info                            : Picture based subtitle format used on BDs/HD-DVDs
Duration                                 : 2 h 10 min
Bit rate                                 : 23.5 kb/s
Count of elements                        : 2585
Stream size                              : 22.0 MiB (0%)
Title                                    : Spanish-PGS
Language                                 : Spanish
Default                                  : No
Forced                                   : No

Text #4
ID                                       : 8
Format                                   : PGS
Muxing mode                              : zlib
Codec ID                                 : S_HDMV/PGS
Codec ID/Info                            : Picture based subtitle format used on BDs/HD-DVDs
Duration                                 : 2 h 10 min
Bit rate                                 : 180 b/s
Count of elements                        : 22
Stream size                              : 172 KiB (0%)
Title                                    : French-FORCED-PGS
Language                                 : French
Default                                  : No
Forced                                   : No

Text #5
ID                                       : 9
Format                                   : PGS
Muxing mode                              : zlib
Codec ID                                 : S_HDMV/PGS
Codec ID/Info                            : Picture based subtitle format used on BDs/HD-DVDs
Duration                                 : 2 h 10 min
Bit rate                                 : 21 b/s
Count of elements                        : 6
Stream size                              : 20.4 KiB (0%)
Title                                    : Spanish-FORCED-PGS
Language                                 : Spanish
Default                                  : No
Forced                                   : No

Menu
00:00:00.000                             : en:Chapter 1
00:06:09.702                             : en:Chapter 2
00:11:29.730                             : en:Chapter 3
00:16:16.225                             : en:Chapter 4
00:24:24.421                             : en:Chapter 5
00:31:26.509                             : en:Chapter 6
00:36:21.679                             : en:Chapter 7
00:40:13.869                             : en:Chapter 8
00:44:48.394                             : en:Chapter 9
00:48:09.720                             : en:Chapter 10
00:56:54.744                             : en:Chapter 11
01:02:38.713                             : en:Chapter 12
01:11:14.019                             : en:Chapter 13
01:21:19.457                             : en:Chapter 14
01:25:56.734                             : en:Chapter 15
01:35:07.868                             : en:Chapter 16
01:37:44.942                             : en:Chapter 17
01:42:28.100                             : en:Chapter 18
01:48:40.096                             : en:Chapter 19
01:59:58.816                             : en:Chapter 20

Phantom.Thread.2017.2160p.BluRay.REMUX.HEVC.DTS-X.7.1.torrent

195.91 KB, 下载次数: 7

电影交流QQ群: 498117193
您需要登录后才可以回帖 登录 | 注册

本版积分规则

小黑屋|手机版|BT探索

GMT+8, 2018-5-27 09:31

Powered by Discuz! X3.2

© 2001-2013 Comsenz Inc.

快速回复 返回顶部 返回列表