BT探索

 找回密码
 注册
查看: 766|回复: 1

[欧美] 艾丽卡.Elektra.2005.DC.1080p.BluRay.x264.DTS-FGT.8.85 GB

[复制链接]

4万

主题

4万

帖子

1万

在线时间

管理员

Rank: 8Rank: 8Rank: 8Rank: 8Rank: 8Rank: 8Rank: 8Rank: 8

积分
137117
注册时间
2010-9-1
最后登录
2018-10-19

Medal No.1Medal No.2Medal No.3Medal No.4Medal No.5Medal No.6Medal No.7Medal No.8Medal No.9Medal No.10

发表于 2018-5-11 08:48:43 | 显示全部楼层 |阅读模式
海报


导演: 罗伯·鲍曼
编剧: Zak Penn / Stu Zicherman
主演: 詹妮弗·加纳 / 高兰·维斯耶克 / 克丽斯滕·普罗特 / 李威尹 / 田川洋行
类型: 动作 / 奇幻 / 冒险
官方网站: http://www.elektramovie.com/
制片国家/地区: 加拿大 / 美国
语言: 英语 / 日语
上映日期: 2005-01-24
片长: 97 分钟 / 100 分钟(director's cut)
又名: 黑天使 / 伊莱克特拉 / 幻影杀手
IMDb链接: tt0357277

艾丽卡的剧情简介 · · · · · ·
  从创世之初开始,正邪两种力量间的争斗就没有终结,他们一方修炼能够起死回生并预见未来的法术,另一方则结成组织不停寻找终极武器的下落。现在,一个女人的出现将影响正邪间的势力平衡。
  女杀手艾丽卡(珍妮弗·加纳 Jennifer Garner 饰)的父母数年前被人杀死,而她自己也不幸身亡,幸有掌握复活能力的导师将她救活,又传授给艾丽卡诸多本领。艾丽卡在执行一次任务期间,和相邻的马克(高兰·维斯耶克 Goran Visnjic 饰)与阿碧父女结识,这对儿父女令艾丽卡回想起自己曾经拥有的家庭之爱,然而任务目标揭晓,雇主的目标居然是马克父女。艾丽卡为了保护父女俩不惜与杀手集团作战,因艾丽卡阻扰而愤怒的“The Hand”派出最强组合,追杀艾丽卡等人……

艾丽卡的获奖情况
第14届MTV电影奖 MTV电影奖 最佳吻戏(提名) 詹妮弗·加纳 / 娜塔莎·迈尔兹

截图





Video
ID                                       : 1
Format                                   : AVC
Format/Info                              : Advanced Video Codec
Format profile                           : [email protected]
Format settings, CABAC                   : Yes
Format settings, ReFrames                : 4 frames
Codec ID                                 : V_MPEG4/ISO/AVC
Duration                                 : 1h 40mn
Bit rate                                 : 10.8 Mbps
Nominal bit rate                         : 11.5 Mbps
Width                                    : 1 920 pixels
Height                                   : 820 pixels
Display aspect ratio                     : 2.35:1
Frame rate mode                          : Constant
Frame rate                               : 23.976 (24000/1001) fps
Color space                              : YUV
Chroma subsampling                       : 4:2:0
Bit depth                                : 8 bits
Scan type                                : Progressive
Bits/(Pixel*Frame)                       : 0.287
Stream size                              : 7.62 GiB (86%)
Writing library                          : x264 core 148 r2638 7599210
Encoding settings                        : cabac=1 / ref=4 / deblock=1:-2:-2 / analyse=0x3:0x113 / me=umh / subme=7 / psy=1 / psy_rd=1.00:0.15 / mixed_ref=1 / me_range=16 / chroma_me=1 / trellis=1 / 8x8dct=1 / cqm=0 / deadzone=21,11 / fast_pskip=1 / chroma_qp_offset=-3 / threads=12 / lookahead_threads=3 / sliced_threads=0 / nr=0 / decimate=1 / interlaced=0 / bluray_compat=0 / constrained_intra=0 / bframes=3 / b_pyramid=2 / b_adapt=2 / b_bias=0 / direct=3 / weightb=1 / open_gop=0 / weightp=2 / keyint=250 / keyint_min=25 / scenecut=40 / intra_refresh=0 / rc_lookahead=50 / rc=abr / mbtree=1 / bitrate=11500 / ratetol=1.0 / qcomp=0.60 / qpmin=0 / qpmax=69 / qpstep=4 / vbv_maxrate=31250 / vbv_bufsize=31250 / nal_hrd=none / filler=0 / ip_ratio=1.40 / aq=1:1.00
Language                                 : English
Default                                  : Yes
Forced                                   : No

Audio
ID                                       : 2
Format                                   : DTS
Format/Info                              : Digital Theater Systems
Mode                                     : 16
Format settings, Endianness              : Big
Codec ID                                 : A_DTS
Duration                                 : 1h 40mn
Bit rate mode                            : Constant
Bit rate                                 : 1 509 Kbps
Channel(s)                               : 6 channels
Channel positions                        : Front: L C R, Side: L R, LFE
Sampling rate                            : 48.0 KHz
Frame rate                               : 93.750 fps (512 spf)
Bit depth                                : 24 bits
Compression mode                         : Lossy
Stream size                              : 1.06 GiB (12%)
Language                                 : English
Default                                  : Yes
Forced                                   : No

Text
ID                                       : 3
Format                                   : UTF-8
Codec ID                                 : S_TEXT/UTF8
Codec ID/Info                            : UTF-8 Plain Text
Language                                 : English
Default                                  : Yes
Forced                                   : No



Elektra.2005.DC.1080p.BluRay.x264.DTS.torrent

89.15 KB, 下载次数: 38

0

主题

497

帖子

172 小时

在线时间

龙套

Rank: 3Rank: 3Rank: 3

积分
408
注册时间
2011-8-25
最后登录
2018-10-19

Medal No.1Medal No.2Medal No.3

发表于 2018-5-13 13:06:57 | 显示全部楼层
好片,感谢楼主分享精彩的电影
您需要登录后才可以回帖 登录 | 注册

本版积分规则

BT探索  

GMT+8, 2018-10-19 12:57

Powered by Discuz! X3.2

© 2001-2013 Comsenz Inc.

快速回复 返回顶部 返回列表