BT探索

 找回密码
 注册
查看: 222|回复: 1

[欧美] 超凡蜘蛛侠.The.Amazing.Spider-Man.2012.1080p.BluRay.X264-AMIABLE.9.84 GB

[复制链接]

3万

主题

4万

帖子

13万

影币

管理员

Rank: 8Rank: 8Rank: 8Rank: 8Rank: 8Rank: 8Rank: 8Rank: 8

积分
130621
注册时间
2010-9-1
最后登录
2018-8-15

Medal No.1Medal No.2Medal No.3Medal No.4Medal No.5Medal No.6Medal No.7Medal No.8Medal No.9Medal No.10

发表于 2018-5-11 08:55:25 | 显示全部楼层 |阅读模式
海报


导演: 马克·韦布
编剧: 史蒂夫·迪特寇 / 斯坦·李 / 詹姆斯·范德比尔特
主演: 安德鲁·加菲尔德 / 艾玛·斯通 / 瑞斯·伊凡斯 / 马丁·辛 / 莎莉·菲尔德 / C·托马斯·豪威尔 / 丹尼斯·利瑞 / 朱丽安妮·尼科尔森 / 坎贝尔·斯科特 / 安妮·帕里西 / 伊尔凡·可汗 / 迈尔斯·艾略特 / 汉娜·马克斯
类型: 动作 / 科幻 / 冒险
官方网站: www.theamazingspiderman.com
制片国家/地区: 美国
语言: 英语
上映日期: 2012-08-27(中国大陆) / 2012-07-03(美国)
片长: 136分钟(美国/中国大陆)
又名: 蜘蛛侠:惊世现新(港) / 蜘蛛人:惊奇再起(台) / 神奇蜘蛛侠 / 蜘蛛侠前传 / 蜘蛛侠4 / 新蜘蛛侠
IMDb链接: tt0948470

超凡蜘蛛侠的剧情简介 · · · · · ·
  童年的一起突发事件,令彼得·帕克(安德鲁·加菲尔德 Andrew Garfield 饰)和父母生离死别。转眼彼得成为一名高中生,他偶然发现父亲的公文包,并从叔父本(马丁·辛 Martin Sheen 饰)处得到线索,于是启程前往奥斯库公司拜访父亲当年的合作伙伴——科特·康纳斯博士(瑞斯·伊凡斯 Rhys Ifans 饰)。在公司内四处寻找线索的彼得意外被蜘蛛咬了一口,回程途中他的身体发生奇异的变化。在康纳斯博士德引导下,彼得不断了解并发掘体内着超乎寻常的能力,喜怒哀乐,各种意想不到的事情迅速向他袭来。直到某日,他便成了影响深远的超级战士蜘蛛侠。
  而城市内也出现了凶恶的蜥蜴人,彼得不平凡的人生就此展开……

超凡蜘蛛侠的获奖情况
第40届动画安妮奖 最佳真人电影动画效果(提名)
第19届美国演员工会奖 电影最佳特技群戏(提名) Tony Angelotti / 安迪·阿姆斯特朗 / Keith Adams / 维克·阿姆斯特朗 / Nina Armstrong
第14届美国青少年选择奖 最佳电影反派(提名) 瑞斯·伊凡斯

截图





Video
ID                                       : 1
Format                                   : AVC
Format/Info                              : Advanced Video Codec
Format profile                           : High@L4.1
Format settings, CABAC                   : Yes
Format settings, ReFrames                : 5 frames
Codec ID                                 : V_MPEG4/ISO/AVC
Duration                                 : 2h 16mn
Bit rate                                 : 8 824 Kbps
Width                                    : 1 920 pixels
Height                                   : 808 pixels
Display aspect ratio                     : 2.40:1
Frame rate mode                          : Constant
Frame rate                               : 23.976 fps
Color space                              : YUV
Chroma subsampling                       : 4:2:0
Bit depth                                : 8 bits
Scan type                                : Progressive
Bits/(Pixel*Frame)                       : 0.237
Stream size                              : 8.21 GiB (83%)
Writing library                          : x264 core 128 r2216 198a7ea
Encoding settings                        : cabac=1 / ref=5 / deblock=1:0:0 / analyse=0x3:0x113 / me=umh / subme=8 / psy=1 / psy_rd=1.00:0.00 / mixed_ref=1 / me_range=16 / chroma_me=1 / trellis=1 / 8x8dct=1 / cqm=0 / deadzone=21,11 / fast_pskip=1 / chroma_qp_offset=-2 / threads=12 / lookahead_threads=2 / sliced_threads=0 / nr=0 / decimate=1 / interlaced=0 / bluray_compat=0 / constrained_intra=0 / bframes=3 / b_pyramid=2 / b_adapt=2 / b_bias=0 / direct=3 / weightb=1 / open_gop=0 / weightp=2 / keyint=240 / keyint_min=24 / scenecut=40 / intra_refresh=0 / rc_lookahead=50 / rc=2pass / mbtree=1 / bitrate=8824 / ratetol=1.0 / qcomp=0.60 / qpmin=0 / qpmax=69 / qpstep=4 / cplxblur=20.0 / qblur=0.5 / ip_ratio=1.40 / aq=1:1.00
Language                                 : English
Default                                  : Yes
Forced                                   : No

Audio
ID                                       : 2
Format                                   : DTS
Format/Info                              : Digital Theater Systems
Mode                                     : 16
Format settings, Endianness              : Big
Codec ID                                 : A_DTS
Duration                                 : 2h 16mn
Bit rate mode                            : Constant
Bit rate                                 : 1 509 Kbps
Channel(s)                               : 6 channels
Channel positions                        : Front: L C R, Side: L R, LFE
Sampling rate                            : 48.0 KHz
Bit depth                                : 24 bits
Compression mode                         : Lossy
Stream size                              : 1.44 GiB (15%)
Language                                 : English
Default                                  : Yes
Forced                                   : No

Text
ID                                       : 3
Format                                   : UTF-8
Codec ID                                 : S_TEXT/UTF8
Codec ID/Info                            : UTF-8 Plain Text
Language                                 : English
Default                                  : No
Forced                                   : No

Menu
00:00:00.000                             : en:00:00:00.000
00:07:45.924                             : en:00:07:45.924
00:14:39.670                             : en:00:14:39.670
00:22:57.543                             : en:00:22:57.543
00:32:58.226                             : en:00:32:58.226
00:41:25.066                             : en:00:41:25.066
00:48:42.503                             : en:00:48:42.503
00:55:10.933                             : en:00:55:10.933
01:03:17.293                             : en:01:03:17.293
01:12:29.011                             : en:01:12:29.011
01:17:51.750                             : en:01:17:51.750
01:24:38.949                             : en:01:24:38.949
01:34:04.556                             : en:01:34:04.556
01:42:59.548                             : en:01:42:59.548
01:52:16.355                             : en:01:52:16.355
02:00:52.912                             : en:02:00:52.912



The.Amazing.Spider-Man.2012.1080p.BluRay.X264.torrent

99.01 KB, 下载次数: 18

电影交流QQ群: 498117193

0

主题

315

帖子

224

影币

龙套

Rank: 3Rank: 3Rank: 3

积分
224
注册时间
2011-8-25
最后登录
2018-8-15
发表于 2018-5-13 13:04:31 | 显示全部楼层
每天都来看看有什么好看的电影
电影交流QQ群: 498117193
您需要登录后才可以回帖 登录 | 注册

本版积分规则

BT探索

GMT+8, 2018-8-16 03:20

Powered by Discuz! X3.2

© 2001-2013 Comsenz Inc.

快速回复 返回顶部 返回列表